BitTorrentTracker PerecTracker.org
BitTorrentTracker PerecTracker.org
    
Регистрация  ·  Вход
 
 · 
Забыли пароль?

  • Капитан Саблезуб и сокровища Лама Рама / Kaptein Sabeltann og skatten i Lama Rama (Йон Андерсен / John Andersen) [2014, Норвегия, семейный, приключения, DVDRip] VO (Виктор Береговых)

    Ответить на тему
     
    Автор Сообщение

    rechyn

    Создавать темы 03-Мар-2015 22:53

           

    [Цитировать]

    Капитан Саблезуб и сокровища Лама Рама / Kaptein Sabeltann og skatten i Lama Rama
    Страна: Норвегия
    Жанр: семейный, приключения
    Год выпуска: 2014
    Продолжительность: 01:32:26
    Перевод: Одноголосый закадровый (Виктор Береговых) - по переводу Михаила Васильева
    Cубтитры: нет
    Режиссер: Йон Андерсен / John Andersen
    В ролях: Кюрре Сюднесс, Уд Вильямсон, Виньяр Петтерсен, Фритьеф Сохейм
    Описание: Отважный и самоуверенный капитан Саблезуб бороздит моря и океаны со своей командой в поисках сокровищ. Естественно, в пути они переживают массу приключений: на них нападает целая армия злобных обезьян, их судно угоняет конкурирующая шайка пиратов, они оказываются участниками государственного переворота, а в довершении всего, у них юнга, который не умеет плавать…
    Доп. информация: Фильм снят по мотивам очень популярной в Норвегии серии книжек о приключениях пирата Саблезуба. Первая книжка вышла в 1989, а в общей сложности их свыше 3 десятков, плюс спектакли, мультфильмы и телесериал. «Капитан Саблезуб» - самая успешная франшиза в истории Норвегии.
    Награды и номинации:
    Спецприз Норвежской Киноакадемии в категории «лучший детский фильм года»
    Номинация на премию Скандинавского Фонда в категории «лучший скандинавский фильм года».
    Сэмпл: https://www.sendspace.com/file/ue0p2b
    Качество видео: DVDRip
    Формат видео: AVI
    Видео: XviD, 720x304 (2.35:1), 25.000 fps, 1871 kbps avg, 0.342 bit/pixel
    Аудио: AC3, 48.0 KHz, 256 Kbps, 2 channels
    MediaInfo
    Format : AVI
    Format/Info : Audio Video Interleave
    File size : 1.38 GiB
    Duration : 1h 32mn
    Overall bit rate : 2 137 Kbps
    Writing application : VirtualDubMod 1.5.10.2 (build 2540/release)
    Writing library : VirtualDubMod build 2540/release
    Video
    ID : 0
    Format : MPEG-4 Visual
    Format profile : AdvancedSimple@L5
    Format settings, BVOP : Yes
    Format settings, QPel : No
    Format settings, GMC : No warppoints
    Format settings, Matrix : Custom
    Codec ID : XVID
    Codec ID/Hint : XviD
    Duration : 1h 32mn
    Bit rate : 1 871 Kbps
    Width : 720 pixels
    Height : 304 pixels
    Display aspect ratio : 2.35:1
    Frame rate : 25.000 fps
    Resolution : 24 bits
    Colorimetry : 4:2:0
    Scan type : Progressive
    Bits/(Pixel*Frame) : 0.342
    Stream size : 1.21 GiB (88%)
    Writing library : XviD 1.2.1 (UTC 2008-12-04)
    Audio
    ID : 1
    Format : AC-3
    Format/Info : Audio Coding 3
    Codec ID : 2000
    Duration : 1h 32mn
    Bit rate mode : Constant
    Bit rate : 256 Kbps
    Channel(s) : 2 channels
    Channel positions : L R
    Sampling rate : 48.0 KHz
    Stream size : 169 MiB (12%)
    Alignment : Split accross interleaves
    Interleave, duration : 40 ms (1.00 video frame)
    Interleave, preload duration : 500 ms
    Скриншот c названием фильма
    Скриншоты
    Скачать .torrent

    Скачать торрент-файл бесплатно и на максимальной скорости!

    Как скачивать? · Что такое торрент? · Рейтинг и ограничения

    !ВНИМАНИЕ!
    Сайт не распространяет и не хранит электронные версии произведений, а занимается лишь лишь предоставлением доступа к создаваемому пользователями каталогу ссылок на торрент-файлы, которые содержат только списки хеш-сумм, убедительная просьба с жалобами обращаться напрямую к пользователю. Файлы для обмена на трекере предоставлены пользователями сайта, и администрация не несёт ответственности за их содержание. Просьба не заливать файлы, защищенные авторскими правами, а также файлы нелегального содержания!


    _________________
    [Профиль] [ЛС]
    Показать сообщения:    
    Ответить на тему

    Текущее время: Сегодня, в 05:53

    Часовой пояс: GMT + 2



    Вы не можете начинать темы
    Вы не можете отвечать на сообщения
    Вы не можете редактировать свои сообщения
    Вы не можете удалять свои сообщения
    Вы не можете голосовать в опросах
    Вы не можете прикреплять файлы к сообщениям
    Вы не можете скачивать файлы