BitTorrentTracker PerecTracker.org
BitTorrentTracker PerecTracker.org
    
Регистрация  ·  Вход
 
 · 
Забыли пароль?

  • Дикая природа Джеймса / All the Wilderness / The Wilderness of James (Майкл Джонсон / Michael Johnson) [2014, США, драма, WEB-DL] Sub Rus + Original Eng

    Ответить на тему
     
    Автор Сообщение

    rechyn

    Создавать темы 03-Мар-2015 22:53

           

    [Цитировать]

    Дикая природа Джеймса / All the Wilderness / The Wilderness of James
    Страна: США
    Жанр: драма
    Год выпуска: 2014
    Продолжительность: 01:16:29
    Перевод: Субтитры. Перевел: Dr. pro
    Cубтитры: русские
    Оригинальная аудиодорожка: английский
    Режиссер: Майкл Джонсон / Michael Johnson
    В ролях: Вирджиния Мэдсен, Изабель Фурман, Ивэн Росс, Дэнни ДеВито
    Описание: История о непоседливом подростке, который решает исследовать дикую местность своего города, страдая из-за отсутствия отца.
    Сэмпл: http://multi-up.com/1034845
    Качество видео: WEB-DL
    Формат видео: AVI
    Видео: Xvid 1280x532 24fps [V: mpeg4 simple profile, yuv420p, 1280x532]
    Аудио: Dolby AC3 48000Hz 6ch 384kbps [A: ac3, 48000 Hz, 5.1, 384 kb/s]
    MediaInfo
    General
    Complete name : E:\Раздачи\All the Wilderness (2014)\All the Wilderness (2014).avi
    Format : AVI
    Format/Info : Audio Video Interleave
    Format profile : OpenDML
    File size : 2.22 GiB
    Duration : 1h 16mn
    Overall bit rate : 4 164 Kbps
    Movie name : RARBG.COM - All.the.Wilderness.2014.720p.WEB-DL.XviD.AC3-RARBG
    Writing library : VirtualDub build 35491/release
    Comment : RARBG.COM - All.the.Wilderness.2014.720p.WEB-DL.XviD.AC3-RARBG
    Video
    ID : 0
    Format : MPEG-4 Visual
    Format profile : Simple@L5
    Format settings, BVOP : No
    Format settings, QPel : No
    Format settings, GMC : No warppoints
    Format settings, Matrix : Default (H.263)
    Codec ID : XVID
    Codec ID/Hint : XviD
    Duration : 1h 16mn
    Bit rate : 3 769 Kbps
    Width : 1 280 pixels
    Height : 532 pixels
    Display aspect ratio : 2.40:1
    Frame rate : 24.000 fps
    Color space : YUV
    Chroma subsampling : 4:2:0
    Bit depth : 8 bits
    Scan type : Progressive
    Compression mode : Lossy
    Bits/(Pixel*Frame) : 0.231
    Stream size : 2.01 GiB (91%)
    Writing library : Lavc56.20.100
    Audio
    ID : 1
    Format : AC-3
    Format/Info : Audio Coding 3
    Mode extension : CM (complete main)
    Format settings, Endianness : Big
    Codec ID : 2000
    Duration : 1h 16mn
    Bit rate mode : Constant
    Bit rate : 384 Kbps
    Channel(s) : 6 channels
    Channel positions : Front: L C R, Side: L R, LFE
    Sampling rate : 48.0 KHz
    Bit depth : 16 bits
    Compression mode : Lossy
    Stream size : 210 MiB (9%)
    Alignment : Aligned on interleaves
    Interleave, duration : 42 ms (1.00 video frame)
    Interleave, preload duration : 512 ms
    Фрагмент субтитров
    1
    00:01:31,157 --> 00:01:34,159
    Отец рассказывал мне о дикой природе.
    2
    00:01:38,731 --> 00:01:41,699
    Он говорил, что это место где все живет
    3
    00:01:44,104 --> 00:01:46,170
    и все умирает.
    4
    00:02:03,456 --> 00:02:05,490
    Изумительное место.
    5
    00:02:08,661 --> 00:02:10,401
    Страшное место.
    6
    00:02:15,335 --> 00:02:19,138
    Мой отец говорил, что дикая природа есть
    внутри каждого мужчины.
    7
    00:02:24,877 --> 00:02:27,045
    Это живет внутри нас
    8
    00:02:32,152 --> 00:02:33,785
    Чарм!
    9
    00:02:34,287 --> 00:02:36,521
    Ты куда, чувак?
    10
    00:02:37,857 --> 00:02:39,524
    Эй, Чарм
    Скриншоты
    Скачать .torrent

    Скачать торрент-файл бесплатно и на максимальной скорости!

    Как скачивать? · Что такое торрент? · Рейтинг и ограничения

    !ВНИМАНИЕ!
    Сайт не распространяет и не хранит электронные версии произведений, а занимается лишь лишь предоставлением доступа к создаваемому пользователями каталогу ссылок на торрент-файлы, которые содержат только списки хеш-сумм, убедительная просьба с жалобами обращаться напрямую к пользователю. Файлы для обмена на трекере предоставлены пользователями сайта, и администрация не несёт ответственности за их содержание. Просьба не заливать файлы, защищенные авторскими правами, а также файлы нелегального содержания!


    _________________
    [Профиль] [ЛС]
    Показать сообщения:    
    Ответить на тему

    Текущее время: Сегодня, в 20:29

    Часовой пояс: GMT + 2



    Вы не можете начинать темы
    Вы не можете отвечать на сообщения
    Вы не можете редактировать свои сообщения
    Вы не можете удалять свои сообщения
    Вы не можете голосовать в опросах
    Вы не можете прикреплять файлы к сообщениям
    Вы не можете скачивать файлы