BitTorrentTracker PerecTracker.org
BitTorrentTracker PerecTracker.org
    
Регистрация  ·  Вход
 
 · 
Забыли пароль?

  • Форсаж 5 / Fast Five (Джастин Лин / Justin Lin) [2011, США, боевик, криминал, триллер, HDTVRip] Dub

    Ответить на тему
     
    Автор Сообщение

    rechyn

    Создавать темы 03-Мар-2015 22:53

           

    [Цитировать]

    Форсаж 5 / Fast Five
    Страна: США
    Жанр: боевик, криминал, триллер
    Год выпуска: 2011
    Продолжительность: 01:59:23
    Перевод: Профессиональный (дублированный)
    Cубтитры: нет
    Оригинальная аудиодорожка: нет
    Режиссер: Джастин Лин / Justin Lin
    В ролях: Вин Дизель, Пол Уокер, Мэтт Шульце, Тайриз Гибсон, Лудакрис, Дуэйн Джонсон, Дон Омар, Джордана Брюстер, Эльза Патаки, Галь Гадот, Тего Калдерон.
    Описание: Освободив Доминика из-под стражи, Брайан и Миа Торетто были вынуждены пересечь несколько границ, чтобы укрыться от властей. Загнанным в угол с Рио-де-Жанейро, им предстоит выполнить последнюю работу во имя собственной свободы. Собирая команду самых лучших гонщиков, они понимают, что противостоять им предстоит коррумпированному дельцу, желающему их смерти. Но он не единственный, кто идет по следу героев. Крутой федеральный агент Люк Хоббс всегда выходит победителем — а в этот раз заданием его отряда стала поимка Дома и Брайана.
    Доп. информация: Рип с канала Первый HD. Из видеоряда удален логотип канала, остались периодические вставки с названием фильма. HDTV имеет иное наполнение кадра, чем BD http://screenshotcomparison.com/comparison/113475
    Сэмпл: http://multi-up.com/1035072
    Качество видео: HDTVRip
    Формат видео: AVI
    Видео: MPEG4, XviD, 720x400 (16/9), 25.000 fps, 1 540 Kbps (0.214 bit/pixel)
    Аудио: AC-3, 48.0 KHz, 2 ch, 192 Kbps, CBR
    MediaInfo
    Общее
    Полное имя : K:\Форсаж 5.avi
    Формат : AVI
    Формат/Информация : Audio Video Interleave
    Размер файла : 1,45 Гбайт
    Продолжительность : 1 ч. 59 м.
    Общий поток : 1742 Кбит/сек
    Название фильма : Форсаж 5 / Fast Five (2011)
    Программа кодирования : VirtualDubMod 1.5.10.2 (build 2540/release)
    Библиотека кодирования : VirtualDubMod build 2540/release
    Правообладатель : miha2154
    Видео
    Идентификатор : 0
    Формат : MPEG-4 Visual
    Профиль формата : Advanced Simple@L5
    Параметр BVOP формата : 1
    Параметр QPel формата : Нет
    Параметр GMC формата : Без точки перехода
    Параметр матрицы формата : Выборочная
    Идентификатор кодека : XVID
    Идентификатор кодека/Подсказка : XviD
    Продолжительность : 1 ч. 59 м.
    Битрейт : 1540 Кбит/сек
    Ширина : 720 пикселей
    Высота : 400 пикселей
    Соотношение сторон : 16:9
    Частота кадров : 25,000 кадров/сек
    Цветовое пространство : YUV
    Субдискретизация насыщенности : 4:2:0
    Битовая глубина : 8 бит
    Тип развёртки : Прогрессивная
    Метод сжатия : С потерями
    Бит/(Пиксели*Кадры) : 0.214
    Размер потока : 1,28 Гбайт (88%)
    Библиотека кодирования : XviD 65
    Аудио
    Идентификатор : 1
    Формат : AC-3
    Формат/Информация : Audio Coding 3
    Расширение режима : CM (complete main)
    Параметр Endianness формата : Big
    Идентификатор кодека : 2000
    Продолжительность : 1 ч. 59 м.
    Вид битрейта : Постоянный
    Битрейт : 192 Кбит/сек
    Каналы : 2 канала
    Расположение каналов : Front: L R
    Частота : 48,0 КГц
    Битовая глубина : 16 бит
    Метод сжатия : С потерями
    Размер потока : 164 Мбайт (11%)
    Выравнивание : Разделение по промежуткам
    Продолжительность промежутка : 40 мс. (1,00 видеокадр)
    Время предзагрузки промежутка : 500 мс.
    Заголовок : Профессиональный (полное дублирование)
    Скриншоты

    Скачать .torrent

    Скачать торрент-файл бесплатно и на максимальной скорости!

    Как скачивать? · Что такое торрент? · Рейтинг и ограничения

    !ВНИМАНИЕ!
    Сайт не распространяет и не хранит электронные версии произведений, а занимается лишь лишь предоставлением доступа к создаваемому пользователями каталогу ссылок на торрент-файлы, которые содержат только списки хеш-сумм, убедительная просьба с жалобами обращаться напрямую к пользователю. Файлы для обмена на трекере предоставлены пользователями сайта, и администрация не несёт ответственности за их содержание. Просьба не заливать файлы, защищенные авторскими правами, а также файлы нелегального содержания!


    _________________
    [Профиль] [ЛС]
    Показать сообщения:    
    Ответить на тему

    Текущее время: Сегодня, в 06:10

    Часовой пояс: GMT + 2



    Вы не можете начинать темы
    Вы не можете отвечать на сообщения
    Вы не можете редактировать свои сообщения
    Вы не можете удалять свои сообщения
    Вы не можете голосовать в опросах
    Вы не можете прикреплять файлы к сообщениям
    Вы не можете скачивать файлы