BitTorrentTracker PerecTracker.org
BitTorrentTracker PerecTracker.org
    
Регистрация  ·  Вход
 
 · 
Забыли пароль?

  • Предательство / Bloedlink (Йорам Люрсен / Joram Lürsen) [2014, Нидерланды, криминал, DVDRip] DVO ((DeadSno & den904))

    Ответить на тему
     
    Автор Сообщение

    rechyn

    Создавать темы 03-Мар-2015 22:53

           

    [Цитировать]

    Предательство / Bloedlink
    Страна: Нидерланды
    Жанр: криминал
    Год выпуска: 2014
    Продолжительность: 01:27:51
    Перевод: Любительский (двухголосый закадровый) (DeadSno & den904)Cубтитры: нет
    Режиссер: Йорам Люрсен / Joram Lürsen
    В ролях: Марван Кензари, Тиго Гернандт, Сара Хронис.
    Описание: Двое бывших заключенных, подружившихся в тюрьме, решают заработать легких денег. В журнале о самых богатых людях, они отыскивают богатея с легкомысленной красавицей-дочкой и похищают ее. Но девица оказывается той еще хитрой стервой и удержать ее на месте не так-то легко. Мало того, ее поведение вносит раздор между подельщиками, создавая двусмысленную ситуацию, раскрывшую неожиданные подробности истинной подоплеки всего происходящего.
    Сэмпл: http://multi-up.com/1035514
    Качество видео: DVDRip
    Формат видео: AVI
    Видео: 720x304 (2.37:1), 23.976 fps, XviD build 50 ~1798 kbps avg, 0.29 bit/pixel
    Аудио: 48 kHz, AC3 Dolby Digital, 2/0 (L,R) ch, ~192 kbps
    MediaInfo
    General
    Complete name : C:\Users\Wladimir\Downloads\Предательство.avi
    Format : AVI
    Format/Info : Audio Video Interleave
    File size : 1.23 GiB
    Duration : 1h 27mn
    Overall bit rate : 2 000 Kbps
    Writing application : VirtualDubModRus 1.5.10.2 (build 2542/release)
    Writing library : VirtualDubMod build 2542/release
    Video
    ID : 0
    Format : xvid
    Codec ID : xvid
    Duration : 1h 27mn
    Bit rate : 1 798 Kbps
    Width : 720 pixels
    Height : 304 pixels
    Display aspect ratio : 2.35:1
    Frame rate : 25.000 fps
    Bits/(Pixel*Frame) : 0.329
    Stream size : 1.10 GiB (90%)
    Audio
    ID : 1
    Format : AC-3
    Format/Info : Audio Coding 3
    Mode extension : CM (complete main)
    Format settings, Endianness : Big
    Codec ID : 2000
    Duration : 1h 27mn
    Bit rate mode : Constant
    Bit rate : 192 Kbps
    Channel(s) : 2 channels
    Channel positions : Front: L R
    Sampling rate : 48.0 KHz
    Bit depth : 16 bits
    Compression mode : Lossy
    Stream size : 121 MiB (10%)
    Alignment : Split accross interleaves
    Interleave, duration : 40 ms (1.00 video frame)
    Interleave, preload duration : 500 ms
    Скриншот c названием фильма
    Скриншоты


    Скачать .torrent

    Скачать торрент-файл бесплатно и на максимальной скорости!

    Как скачивать? · Что такое торрент? · Рейтинг и ограничения

    !ВНИМАНИЕ!
    Сайт не распространяет и не хранит электронные версии произведений, а занимается лишь лишь предоставлением доступа к создаваемому пользователями каталогу ссылок на торрент-файлы, которые содержат только списки хеш-сумм, убедительная просьба с жалобами обращаться напрямую к пользователю. Файлы для обмена на трекере предоставлены пользователями сайта, и администрация не несёт ответственности за их содержание. Просьба не заливать файлы, защищенные авторскими правами, а также файлы нелегального содержания!


    _________________
    [Профиль] [ЛС]
    Показать сообщения:    
    Ответить на тему

    Текущее время: Сегодня, в 10:39

    Часовой пояс: GMT + 2



    Вы не можете начинать темы
    Вы не можете отвечать на сообщения
    Вы не можете редактировать свои сообщения
    Вы не можете удалять свои сообщения
    Вы не можете голосовать в опросах
    Вы не можете прикреплять файлы к сообщениям
    Вы не можете скачивать файлы