Register  ·  Log in
Forgot password?

  • Предательство / Bloedlink (Йорам Люрсен / Joram Lürsen) [2014, Нидерланды, криминал, DVDRip] DVO ((DeadSno & den904))

    Reply to topic
    Author Message


    Post 03-Mar-2015 23:53



    Предательство / Bloedlink
    Страна: Нидерланды
    Жанр: криминал
    Год выпуска: 2014
    Продолжительность: 01:27:51
    Перевод: Любительский (двухголосый закадровый) (DeadSno & den904)Cубтитры: нет
    Режиссер: Йорам Люрсен / Joram Lürsen
    В ролях: Марван Кензари, Тиго Гернандт, Сара Хронис.
    Описание: Двое бывших заключенных, подружившихся в тюрьме, решают заработать легких денег. В журнале о самых богатых людях, они отыскивают богатея с легкомысленной красавицей-дочкой и похищают ее. Но девица оказывается той еще хитрой стервой и удержать ее на месте не так-то легко. Мало того, ее поведение вносит раздор между подельщиками, создавая двусмысленную ситуацию, раскрывшую неожиданные подробности истинной подоплеки всего происходящего.
    Качество видео: DVDRip
    Формат видео: AVI
    Видео: 720x304 (2.37:1), 23.976 fps, XviD build 50 ~1798 kbps avg, 0.29 bit/pixel
    Аудио: 48 kHz, AC3 Dolby Digital, 2/0 (L,R) ch, ~192 kbps
    Complete name : C:\Users\Wladimir\Downloads\Предательство.avi
    Format : AVI
    Format/Info : Audio Video Interleave
    File size : 1.23 GiB
    Duration : 1h 27mn
    Overall bit rate : 2 000 Kbps
    Writing application : VirtualDubModRus (build 2542/release)
    Writing library : VirtualDubMod build 2542/release
    ID : 0
    Format : xvid
    Codec ID : xvid
    Duration : 1h 27mn
    Bit rate : 1 798 Kbps
    Width : 720 pixels
    Height : 304 pixels
    Display aspect ratio : 2.35:1
    Frame rate : 25.000 fps
    Bits/(Pixel*Frame) : 0.329
    Stream size : 1.10 GiB (90%)
    ID : 1
    Format : AC-3
    Format/Info : Audio Coding 3
    Mode extension : CM (complete main)
    Format settings, Endianness : Big
    Codec ID : 2000
    Duration : 1h 27mn
    Bit rate mode : Constant
    Bit rate : 192 Kbps
    Channel(s) : 2 channels
    Channel positions : Front: L R
    Sampling rate : 48.0 KHz
    Bit depth : 16 bits
    Compression mode : Lossy
    Stream size : 121 MiB (10%)
    Alignment : Split accross interleaves
    Interleave, duration : 40 ms (1.00 video frame)
    Interleave, preload duration : 500 ms
    Скриншот c названием фильма

    Download .torrent

    Download free and at maximum speed!

    How to Download? · What is a torrent? · Ratings and Limitations

    The site does not extend and does not store electronic(digital) versions of products, and only gives access to a reference catalogue created by users on torrent-files which contain only lists of the hash-sums, the earnest entreaty, with complaints(abuse) to access directly to the user. Files for an exchange on tracker are given by users of a site, and the administration does not bear the responsibility for their maintenance. The request to not fill in the files protected by copyrights, and also files of the illegal maintenance!

    [Profile] [PM]
    Display posts from previous:    
    Reply to topic

    The time now is: Today 04:24

    All times are GMT + 3 Hours

    You cannot post new topics in this forum
    You cannot reply to topics in this forum
    You cannot edit your posts in this forum
    You cannot delete your posts in this forum
    You cannot vote in polls in this forum
    You cannot attach files in this forum
    You cannot download files in this forum