BitTorrentTracker PerecTracker.org
BitTorrentTracker PerecTracker.org
    
Регистрация  ·  Вход
 
 · 
Забыли пароль?

  • Чудесное путешествие Нильса с дикими гусями / Nils Holgerssons wunderbare Reise (Дирк Регель / Dirk Regel) [2011, Германия, Швеция, сказка, детский, семейный, DVB] [4 серии из 4] MVO (Игмар)

    Ответить на тему
     
    Автор Сообщение

    rechyn

    Создавать темы 03-Мар-2015 22:53

           

    [Цитировать]

    Чудесное путешествие Нильса с дикими гусями / Nils Holgerssons wunderbare Reise
    4 серии из 4

    Страна: Германия, Швеция
    Жанр: сказка, детский, семейный
    Год выпуска: 2011
    Продолжительность: 00:56:26 + 00:58:09
    Перевод: Профессиональный (многоголосый закадровый) Компания "Игмар"
    Cубтитры: нет
    Оригинальная аудиодорожка: нет
    Режиссер: Дирк Регель / Dirk Regel
    В ролях: Юстус Каммерер, Паулин Реневьер, Сесилия Люнг, Ханнс Цишлер, Хиннерк Шёнеманн, Стефани Япп, Курт Крёмер, Уве Бом, Мирья Турестедт, Йоаким Нэттерквист
    Описание: По мотивам романа Сельмы Лагерлёф.
    Тринадцатилетний Нильс мечтает лежать где-нибудь на травке, подшучивая над окружающими, а также проводить время с симпатичной Асей, в которую по уши влюблен. Но он вынужден помогать родителям на ферме, ухаживая за скотом. В один прекрасный день жизнь Нильса круто меняется - волшебным образом он уменьшается до размеров карлика, более того, он начинает понимать язык животных. Есть только один способ снова вырасти - стать добрым и отзывчивым мальчиком, но Нильс пока об этом не знает. Он совершает увлекательное путешествие на гусе из Швеции в Лапландию и обратно. По пути в Лапландию он встречает стаю диких гусей, летящих вдоль Ботнического залива, и вместе с ними заглядывает в отдаленные районы Скандинавии. В результате Нильс посещает все провинции Швеции, попадает в различные приключения и узнает много нового из географии, истории и культуры каждой провинции своей родины...
    Семпл: http://sendfile.su/1088112
    Качество видео: DVB (Канал "Gulli")
    Формат видео: MPG
    Видео: 720x576 (4:3) @ 768x576, 25.000 fps, MPEG-2 Video, ~1926 Kbps, 0.186 bits/pixel
    Аудио: 48.0 KHz, MPEG-1 Audio layer 2, 2 ch, 192 Kbps
    MediaInfo
    GeneralComplete name : 1. Der Aufbruch.mpgFormat : MPEG-PSFile size : 849 MiBDuration : 56mn 26sOverall bit rate mode : VariableOverall bit rate : 2 104 Kbps
    VideoID : 224 (0xE0)Format : MPEG VideoFormat version : Version 2Format profile : Main@MainFormat settings, BVOP : YesFormat settings, Matrix : CustomFormat settings, GOP : VariableFormat settings, picture structure : FrameDuration : 56mn 26sBit rate mode : VariableBit rate : 1 870 KbpsMaximum bit rate : 15.0 MbpsWidth : 720 pixelsHeight : 576 pixelsDisplay aspect ratio : 4:3Frame rate : 25.000 fpsStandard : PALColor space : YUVChroma subsampling : 4:2:0Bit depth : 8 bitsScan type : InterlacedScan order : Top Field FirstCompression mode : LossyBits/(Pixel*Frame) : 0.180Time code of first frame : 00:00:00:00Time code source : Group of pictures headerGOP, Open/Closed : OpenStream size : 755 MiB (89%)GOP, Open/Closed of first frame : Closed
    AudioID : 192 (0xC0)Format : MPEG AudioFormat version : Version 1Format profile : Layer 2Duration : 56mn 25sBit rate mode : ConstantBit rate : 192 KbpsChannel(s) : 2 channelsSampling rate : 48.0 KHzCompression mode : LossyStream size : 77.5 MiB (9%)-GeneralComplete name : 2. Die Reise.mpgFormat : MPEG-PSFile size : 1.01 GiBDuration : 58mn 9sOverall bit rate mode : VariableOverall bit rate : 2 478 Kbps
    VideoID : 224 (0xE0)Format : MPEG VideoFormat version : Version 2Format profile : Main@MainFormat settings, BVOP : YesFormat settings, Matrix : CustomFormat settings, GOP : VariableFormat settings, picture structure : FrameDuration : 58mn 9sBit rate mode : VariableBit rate : 2 237 KbpsMaximum bit rate : 15.0 MbpsWidth : 720 pixelsHeight : 576 pixelsDisplay aspect ratio : 4:3Frame rate : 25.000 fpsStandard : PALColor space : YUVChroma subsampling : 4:2:0Bit depth : 8 bitsScan type : InterlacedScan order : Top Field FirstCompression mode : LossyBits/(Pixel*Frame) : 0.216Time code of first frame : 00:00:00:00Time code source : Group of pictures headerStream size : 930 MiB (90%)
    AudioID : 192 (0xC0)Format : MPEG AudioFormat version : Version 1Format profile : Layer 2Duration : 58mn 9sBit rate mode : ConstantBit rate : 192 KbpsChannel(s) : 2 channelsSampling rate : 48.0 KHzCompression mode : LossyStream size : 79.9 MiB (8%)-GeneralComplete name : 3. Die Bewahrung.mpgFormat : MPEG-PSFile size : 836 MiBDuration : 58mn 21sOverall bit rate mode : VariableOverall bit rate : 2 003 Kbps
    VideoID : 224 (0xE0)Format : MPEG VideoFormat version : Version 2Format profile : Main@MainFormat settings, BVOP : YesFormat settings, Matrix : CustomFormat settings, GOP : VariableFormat settings, picture structure : FrameDuration : 58mn 21sBit rate mode : VariableBit rate : 1 771 KbpsMaximum bit rate : 15.0 MbpsWidth : 720 pixelsHeight : 576 pixelsDisplay aspect ratio : 4:3Frame rate : 25.000 fpsStandard : PALColor space : YUVChroma subsampling : 4:2:0Bit depth : 8 bitsScan type : InterlacedScan order : Top Field FirstCompression mode : LossyBits/(Pixel*Frame) : 0.171Time code of first frame : 00:00:00:00Time code source : Group of pictures headerGOP, Open/Closed : OpenStream size : 739 MiB (88%)GOP, Open/Closed of first frame : Closed
    AudioID : 192 (0xC0)Format : MPEG AudioFormat version : Version 1Format profile : Layer 2Duration : 58mn 21sBit rate mode : ConstantBit rate : 192 KbpsChannel(s) : 2 channelsSampling rate : 48.0 KHzCompression mode : LossyStream size : 80.1 MiB (10%)-GeneralComplete name : 4. Die Heimkehr.mpgFormat : MPEG-PSFile size : 843 MiBDuration : 57mn 19sOverall bit rate mode : VariableOverall bit rate : 2 057 Kbps
    VideoID : 224 (0xE0)Format : MPEG VideoFormat version : Version 2Format profile : Main@MainFormat settings, BVOP : YesFormat settings, Matrix : CustomFormat settings, GOP : VariableFormat settings, picture structure : FrameDuration : 57mn 19sBit rate mode : VariableBit rate : 1 825 KbpsMaximum bit rate : 15.0 MbpsWidth : 720 pixelsHeight : 576 pixelsDisplay aspect ratio : 4:3Frame rate : 25.000 fpsStandard : PALColor space : YUVChroma subsampling : 4:2:0Bit depth : 8 bitsScan type : InterlacedScan order : Top Field FirstCompression mode : LossyBits/(Pixel*Frame) : 0.176Time code of first frame : 00:00:00:00Time code source : Group of pictures headerGOP, Open/Closed : OpenStream size : 748 MiB (89%)GOP, Open/Closed of first frame : Closed
    AudioID : 192 (0xC0)Format : MPEG AudioFormat version : Version 1Format profile : Layer 2Duration : 57mn 19sBit rate mode : ConstantBit rate : 192 KbpsChannel(s) : 2 channelsSampling rate : 48.0 KHzCompression mode : LossyStream size : 78.7 MiB (9%)
    Скриншоты
    Скачать .torrent

    Скачать торрент-файл бесплатно и на максимальной скорости!

    Как скачивать? · Что такое торрент? · Рейтинг и ограничения

    !ВНИМАНИЕ!
    Сайт не распространяет и не хранит электронные версии произведений, а занимается лишь лишь предоставлением доступа к создаваемому пользователями каталогу ссылок на торрент-файлы, которые содержат только списки хеш-сумм, убедительная просьба с жалобами обращаться напрямую к пользователю. Файлы для обмена на трекере предоставлены пользователями сайта, и администрация не несёт ответственности за их содержание. Просьба не заливать файлы, защищенные авторскими правами, а также файлы нелегального содержания!


    _________________
    [Профиль] [ЛС]
    Показать сообщения:    
    Ответить на тему

    Текущее время: Сегодня, в 19:50

    Часовой пояс: GMT + 2



    Вы не можете начинать темы
    Вы не можете отвечать на сообщения
    Вы не можете редактировать свои сообщения
    Вы не можете удалять свои сообщения
    Вы не можете голосовать в опросах
    Вы не можете прикреплять файлы к сообщениям
    Вы не можете скачивать файлы