BitTorrentTracker PerecTracker.org
BitTorrentTracker PerecTracker.org
    
Регистрация  ·  Вход
 
 · 
Забыли пароль?

  • Ночь в музее: Секрет гробницы / Night at the Museum: Secret of the Tomb (Шон Леви / Shawn Levy) [2014, США, фэнтези, комедия, приключения, семейный, BDRip-AVC] Dub (Line) + Sub Eng + Original Eng

    Ответить на тему
     
    Автор Сообщение

    rechyn

    Создавать темы 03-Мар-2015 22:53

           

    [Цитировать]

    Ночь в музее: Секрет гробницы
    Night at the Museum: Secret of the Tomb
    «Эта ночь изменит всё»
    -Страна: США
    Жанр: фэнтези, комедия, приключения, семейный
    Год выпуска: 2014
    Продолжительность: 01:37:48
    Перевод: Профессиональный (дублированный) Line
    Cубтитры: Eng
    Оригинальная аудиодорожка: английский
    Режиссер: Шон Леви / Shawn Levy
    В ролях:
    Бен Стиллер | Ben Stiller
    Робин Уильямс | Robin Williams
    Оуэн Уилсон, Стив Куган, Рики Джервэйс, Дэн Стивенс, Ребел Уилсон, Скайлер Джизондо, Рами Малек, Патрик Галлахер-ОписаниеНочной сторож Музея естественной истории в Нью-Йорке Ларри Дэйли в отчаянии: его друзья-экспонаты начинают странно себя вести, а всё потому, что оживляющая их древнеегипетская золотая пластина разрушается. Только отец фараона Ахкменра знает тайну магического артефакта, но вот беда — его мумия далеко, она выставлена в Британском музее естествознания! Команда любимых героев предпринимает беспрецедентное путешествие в Лондон. Они должны объединиться с британскими экспонатами и рискнуть всем, чтобы восстановить золотую пластину до того, как Ларри потеряет своих друзей навсегда.-Сэмпл

    IMDb: 6.50 (17 789)
    Качество видео: BDRip-AVC Night.at.the.Museum.Secret.of.the.Tomb.2014.1080p.BluRay.REMUX.AVC.DTS-HD.MA.7.1-RARBG
    Формат видео: MKV
    Видео: AVC 3568 Kbps 1152 x 624 (1.846) 23.976 fps
    Аудио: AC-3 192 Kbps 2 channels, 48.0 KHz Rus DUB Line
    Аудио 2: AC-3 448 Kbps 6 channels, 48.0 KHz Eng
    Формат субтитров: softsub (SRT)
    MediaInfo | Log
    Log
    x264 [info]: frame I:1548 Avg QP:15.72 size:110017
    x264 [info]: frame P:30342 Avg QP:17.21 size: 37865
    x264 [info]: frame B:108820 Avg QP:19.47 size: 12487
    x264 [info]: consecutive B-frames: 2.1% 5.4% 5.8% 17.6% 19.0% 36.1% 7.6% 1.7% 1.5% 0.8% 0.9% 0.4% 0.5% 0.4% 0.2%
    x264 [info]: mb I I16..4: 5.3% 79.5% 15.3%
    x264 [info]: mb P I16..4: 0.6% 8.9% 1.2% P16..4: 29.0% 34.5% 14.3% 2.1% 0.2% skip: 9.2%
    x264 [info]: mb B I16..4: 0.0% 0.7% 0.1% B16..8: 34.2% 21.9% 3.8% direct: 6.1% skip:33.2% L0:43.9% L1:43.7% BI:12.3%
    x264 [info]: 8x8 transform intra:81.8% inter:60.7%
    x264 [info]: direct mvs spatial:99.2% temporal:0.8%
    x264 [info]: coded y,uvDC,uvAC intra: 92.8% 93.0% 81.5% inter: 21.8% 33.7% 20.1%
    x264 [info]: i16 v,h,dc,p: 30% 11% 5% 54%
    x264 [info]: i8 v,h,dc,ddl,ddr,vr,hd,vl,hu: 9% 8% 6% 10% 14% 14% 14% 13% 13%
    x264 [info]: i4 v,h,dc,ddl,ddr,vr,hd,vl,hu: 10% 8% 4% 9% 16% 14% 14% 12% 13%
    x264 [info]: i8c dc,h,v,p: 50% 17% 15% 19%
    x264 [info]: Weighted P-Frames: Y:2.8% UV:1.8%
    x264 [info]: ref P L0: 44.6% 9.0% 19.3% 6.5% 6.7% 3.6% 3.7% 1.9% 1.8% 1.3% 1.5% 0.2% 0.0%
    x264 [info]: ref B L0: 69.2% 13.4% 6.0% 3.8% 2.2% 2.0% 1.8% 1.0% 0.5% 0.3%
    x264 [info]: ref B L1: 92.1% 7.9%
    x264 [info]: kb/s:3650.51
    x264 [total]: encoded 140710 frames, 8.01 fps, 3650.51 kb/s, duration 4:52:56.15
    Format version : Version 4 / Version 2
    File size : 2.93 GiB
    Duration : 1h 37mn
    Overall bit rate : 4 293 Kbps
    Encoded date : UTC 2015-02-28 09:34:04
    Writing application : mkvmerge v6.7.0 ('Back to the Ground') 32bit built on Jan 8 2014 15:03:17
    Writing library : libebml v1.3.0 + libmatroska v1.4.1
    Video
    ID : 1
    Format : AVC
    Format/Info : Advanced Video Codec
    Format profile : High@L4.1
    Format settings, CABAC : Yes
    Format settings, ReFrames : 11 frames
    Codec ID : V_MPEG4/ISO/AVC
    Duration : 1h 37mn
    Bit rate : 3 568 Kbps
    Width : 1 152 pixels
    Height : 624 pixels
    Display aspect ratio : 1.85:1
    Frame rate mode : Constant
    Frame rate : 23.976 fps
    Color space : YUV
    Chroma subsampling : 4:2:0
    Bit depth : 8 bits
    Scan type : Progressive
    Bits/(Pixel*Frame) : 0.207
    Stream size : 2.44 GiB (83%)
    Title : Night at the Museum: Secret of the Tomb [rutracker.org]
    Writing library : x264 core 144 r2525kMod 40bb568
    Encoding settings : cabac=1 / ref=11 / deblock=1:-2:-1 / analyse=0x3:0x133 / me=umh / subme=11 / psy=1 / fade_compensate=0.00 / psy_rd=1.00:0.05 / mixed_ref=1 / me_range=32 / chroma_me=1 / trellis=2 / 8x8dct=1 / cqm=0 / deadzone=21,11 / fast_pskip=0 / chroma_qp_offset=-3 / threads=12 / lookahead_threads=3 / sliced_threads=0 / nr=0 / decimate=1 / interlaced=0 / bluray_compat=0 / constrained_intra=0 / fgo=0 / bframes=14 / b_pyramid=2 / b_adapt=2 / b_bias=0 / direct=3 / weightb=1 / open_gop=0 / weightp=2 / keyint=250 / keyint_min=23 / scenecut=40 / intra_refresh=0 / rc_lookahead=80 / rc=crf / mbtree=0 / crf=18.3000 / qcomp=0.60 / qpmin=0 / qpmax=69 / qpstep=4 / vbv_maxrate=50000 / vbv_bufsize=62500 / crf_max=0.0 / nal_hrd=none / filler=0 / ip_ratio=1.40 / pb_ratio=1.30 / aq=3:0.90
    Language : English
    Default : Yes
    Forced : No
    Audio #1
    ID : 2
    Format : AC-3
    Format/Info : Audio Coding 3
    Mode extension : CM (complete main)
    Format settings, Endianness : Big
    Codec ID : A_AC3
    Duration : 1h 37mn
    Bit rate mode : Constant
    Bit rate : 192 Kbps
    Channel(s) : 2 channels
    Channel positions : Front: L R
    Sampling rate : 48.0 KHz
    Bit depth : 16 bits
    Compression mode : Lossy
    Stream size : 134 MiB (4%)
    Title : Dub [Line]
    Language : Russian
    Default : Yes
    Forced : No
    Audio #2
    ID : 3
    Format : AC-3
    Format/Info : Audio Coding 3
    Mode extension : CM (complete main)
    Format settings, Endianness : Big
    Codec ID : A_AC3
    Duration : 1h 37mn
    Bit rate mode : Constant
    Bit rate : 448 Kbps
    Channel(s) : 6 channels
    Channel positions : Front: L C R, Side: L R, LFE
    Sampling rate : 48.0 KHz
    Bit depth : 16 bits
    Compression mode : Lossy
    Stream size : 313 MiB (10%)
    Title : Original
    Language : English
    Default : No
    Forced : No
    Text #1
    ID : 4
    Format : UTF-8
    Codec ID : S_TEXT/UTF8
    Codec ID/Info : UTF-8 Plain Text
    Title : Full
    Language : English
    Default : No
    Forced : No
    Text #2
    ID : 5
    Format : UTF-8
    Codec ID : S_TEXT/UTF8
    Codec ID/Info : UTF-8 Plain Text
    Title : SDH
    Language : English
    Default : No
    Forced : No
    Text #3
    ID : 6
    Format : UTF-8
    Codec ID : S_TEXT/UTF8
    Codec ID/Info : UTF-8 Plain Text
    Title : SDH-Colored
    Language : English
    Default : No
    Forced : No
    Menu
    00:00:00.000 : en:Chapter 01
    00:04:34.440 : en:Chapter 02
    00:06:29.347 : en:Chapter 03
    00:09:10.883 : en:Chapter 04
    00:13:18.130 : en:Chapter 05
    00:14:43.132 : en:Chapter 06
    00:18:01.038 : en:Chapter 07
    00:19:58.906 : en:Chapter 08
    00:22:27.387 : en:Chapter 09
    00:24:47.611 : en:Chapter 10
    00:26:26.084 : en:Chapter 11
    00:29:11.583 : en:Chapter 12
    00:32:03.504 : en:Chapter 13
    00:35:50.815 : en:Chapter 14
    00:39:48.761 : en:Chapter 15
    00:44:14.735 : en:Chapter 16
    00:51:19.284 : en:Chapter 17
    00:52:38.530 : en:Chapter 18
    00:58:00.351 : en:Chapter 19
    01:01:09.624 : en:Chapter 20
    01:03:40.274 : en:Chapter 21
    01:06:44.333 : en:Chapter 22
    01:08:01.911 : en:Chapter 23
    01:11:09.640 : en:Chapter 24
    01:17:08.624 : en:Chapter 25
    01:21:45.317 : en:Chapter 26
    01:27:47.512 : en:Chapter 27
    01:31:28.274 : en:Chapter 28
    Скриншоты


    Скачать .torrent

    Скачать торрент-файл бесплатно и на максимальной скорости!

    Как скачивать? · Что такое торрент? · Рейтинг и ограничения

    !ВНИМАНИЕ!
    Сайт не распространяет и не хранит электронные версии произведений, а занимается лишь лишь предоставлением доступа к создаваемому пользователями каталогу ссылок на торрент-файлы, которые содержат только списки хеш-сумм, убедительная просьба с жалобами обращаться напрямую к пользователю. Файлы для обмена на трекере предоставлены пользователями сайта, и администрация не несёт ответственности за их содержание. Просьба не заливать файлы, защищенные авторскими правами, а также файлы нелегального содержания!


    _________________
    [Профиль] [ЛС]
    Показать сообщения:    
    Ответить на тему

    Текущее время: Сегодня, в 05:59

    Часовой пояс: GMT + 2



    Вы не можете начинать темы
    Вы не можете отвечать на сообщения
    Вы не можете редактировать свои сообщения
    Вы не можете удалять свои сообщения
    Вы не можете голосовать в опросах
    Вы не можете прикреплять файлы к сообщениям
    Вы не можете скачивать файлы