BitTorrentTracker PerecTracker.org
BitTorrentTracker PerecTracker.org
    
Регистрация  ·  Вход
 
 · 
Забыли пароль?

  • Волк у двери / O Lobo atrs da Porta / A Wolf at the Door (Фернандо Коимбра / Fernando Coimbra) [2013, Бразилия, Триллер, драма, DVDRip] VO (PashaUp)

    Ответить на тему
     
    Автор Сообщение

    rechyn

    Создавать темы 03-Мар-2015 22:53

           

    [Цитировать]

    --Волк у двери / O Lobo atrs da Porta / A Wolf at the Door-Страна: Бразилия
    Жанр: Триллер, драма
    Год выпуска: 2013
    Продолжительность: 01:37:30-Перевод: Одноголосый закадровый PashaUp
    по субтитрам: creo140
    Cубтитры: нет-Режиссер: Фернандо Коимбра / Fernando Coimbra-В ролях: Талита Караута, Жулиану Казарре, Мильем Корташ, Леандра Леал, Фабиула Наскименту, Изабель Риббас, Антонио Саборио, Тамара Таксман, Карин Телес
    Описание: Похищена шестилетняя девочка Кларинья. Родители девочки, Сильвия и Бернарду, и главная подозреваемая, дают противоречивые показания. Эта девушка — любовница Бернарду, с которой тот познакомился в поезде. Но по ходу действия выясняется, что и Сильвия отлично знает эту девушку, не имея при этом ни малейшего представления о ее связи с Бернарду. Для Сильвии, дружба с такой девушкой, настоящая отдушина. Способ выбраться из каждодневной рутины. А запылавший в ее душе огонь помог вновь разжечь страсть к мужу...-| Сэмпл | IMDB | КиноПоиск |-Качество видео: DVDRip
    Формат видео: AVI
    Видео: 720x304 (2.37:1), 25 fps, XviD build 50 ~1549 kbps avg, 0.28 bit/pixel
    Аудио: 48 kHz, AC3 Dolby Digital, 3/2 (L,C,R,l,r) + LFE ch, ~448 kbps

    MediaInfo
    Общее
    Полное имя : F:\BD torrent\mytorrentsup\O Lobo atrs da Porta.avi
    Формат : AVI
    Формат/Информация : Audio Video Interleave
    Размер файла : 1,37 Гбайт
    Продолжительность : 1 ч. 37 м.
    Общий поток : 2007 Кбит/сек
    Программа кодирования : VirtualDubMod 1.5.10.2 (build 2540/release)
    Библиотека кодирования : VirtualDubMod build 2540/release
    Видео
    Идентификатор : 0
    Формат : MPEG-4 Visual
    Профиль формата : Advanced Simple@L5
    Параметр BVOP формата : 1
    Параметр QPel формата : Нет
    Параметр GMC формата : Без точки перехода
    Параметр матрицы формата : Default (MPEG)
    Идентификатор кодека : XVID
    Идентификатор кодека/Подсказка : XviD
    Продолжительность : 1 ч. 37 м.
    Битрейт : 1550 Кбит/сек
    Ширина : 720 пикселей
    Высота : 304 пикселя
    Соотношение сторон : 2,35:1
    Частота кадров : 25,000 кадров/сек
    Цветовое пространство : YUV
    Субдискретизация насыщенности : 4:2:0
    Битовая глубина : 8 бит
    Тип развёртки : Прогрессивная
    Метод сжатия : С потерями
    Бит/(Пиксели*Кадры) : 0.283
    Размер потока : 1,06 Гбайт (77%)
    Библиотека кодирования : XviD 1.2.1 (UTC 2008-12-04)
    Аудио
    Идентификатор : 1
    Формат : AC-3
    Формат/Информация : Audio Coding 3
    Расширение режима : CM (complete main)
    Параметр Endianness формата : Big
    Идентификатор кодека : 2000
    Продолжительность : 1 ч. 37 м.
    Вид битрейта : Постоянный
    Битрейт : 448 Кбит/сек
    Каналы : 6 каналов
    Расположение каналов : Front: L C R, Side: L R, LFE
    Частота : 48,0 КГц
    Битовая глубина : 16 бит
    Метод сжатия : С потерями
    Размер потока : 312 Мбайт (22%)
    Выравнивание : Разделение по промежуткам
    Продолжительность промежутка : 40 мс. (1,00 видеокадр)
    Время предзагрузки промежутка : 500 мс.
    Скриншот c названием фильма
    Скриншоты
    Скачать .torrent

    Скачать торрент-файл бесплатно и на максимальной скорости!

    Как скачивать? · Что такое торрент? · Рейтинг и ограничения

    !ВНИМАНИЕ!
    Сайт не распространяет и не хранит электронные версии произведений, а занимается лишь лишь предоставлением доступа к создаваемому пользователями каталогу ссылок на торрент-файлы, которые содержат только списки хеш-сумм, убедительная просьба с жалобами обращаться напрямую к пользователю. Файлы для обмена на трекере предоставлены пользователями сайта, и администрация не несёт ответственности за их содержание. Просьба не заливать файлы, защищенные авторскими правами, а также файлы нелегального содержания!


    _________________
    [Профиль] [ЛС]
    Показать сообщения:    
    Ответить на тему

    Текущее время: Сегодня, в 02:29

    Часовой пояс: GMT + 2



    Вы не можете начинать темы
    Вы не можете отвечать на сообщения
    Вы не можете редактировать свои сообщения
    Вы не можете удалять свои сообщения
    Вы не можете голосовать в опросах
    Вы не можете прикреплять файлы к сообщениям
    Вы не можете скачивать файлы