Register  ·  Log in
Forgot password?

  • Приключения Бэйли: Рождественский герой / Adventures of Bailey: Christmas Hero (Стив Франке / Steve Franke) [2012, США, Семейный, приключения, DVB] DVO (Gulli)

    Reply to topic
    Author Message


    Post 03-Mar-2015 23:53



    Приключения Бэйли: Рождественский герой / Adventures of Bailey: Christmas Hero
    Страна: США
    Жанр: Семейный, приключения
    Год выпуска: 2012
    Продолжительность: 01:22:56
    Перевод: Профессиональный (двухголосый закадровый) Канал "Gulli"
    Cубтитры: нет
    Оригинальная аудиодорожка: нет
    Режиссер: Стив Франке / Steve Franke
    В ролях: Рик Шью, Трей Бампасс, Кристин Галиэн, Лизбет Карденас, Грант Джеймс, Джули Эриксон, Кензи Пэллоун
    Описание: Невероятные рождественские приключения пса Бейли, которые помогут ему понять весь смысл Рождества и почувствовать дух этого праздника.
    Качество видео: DVB
    Формат видео: MPG
    Видео: 720x576 (4:3) @ 768x576, 25.000 fps, MPEG-2 Video, ~1816 Kbps, 0.175 bits/pixel
    Аудио: 48.0 KHz, MPEG-1 Audio layer 2, 2 ch, 192 Kbps
    Complete name : Adventures of Bailey - Christmas Hero 2012 Gulli DVO.mpg
    Format : MPEG-PS
    File size : 1.19 GiB
    Duration : 1h 22mn
    Overall bit rate mode : Variable
    Overall bit rate : 2 048 Kbps
    ID : 224 (0xE0)
    Format : MPEG Video
    Format version : Version 2
    Format profile : Main@Main
    Format settings, BVOP : Yes
    Format settings, Matrix : Custom
    Format settings, GOP : Variable
    Format settings, picture structure : Frame
    Duration : 1h 22mn
    Bit rate mode : Variable
    Bit rate : 1 816 Kbps
    Maximum bit rate : 15.0 Mbps
    Width : 720 pixels
    Height : 576 pixels
    Display aspect ratio : 4:3
    Frame rate : 25.000 fps
    Standard : PAL
    Color space : YUV
    Chroma subsampling : 4:2:0
    Bit depth : 8 bits
    Scan type : Interlaced
    Scan order : Top Field First
    Compression mode : Lossy
    Bits/(Pixel*Frame) : 0.175
    Time code of first frame : 00:00:00:00
    Time code source : Group of pictures header
    GOP, Open/Closed : Open
    Stream size : 1.05 GiB (89%)
    GOP, Open/Closed of first frame : Closed
    ID : 192 (0xC0)
    Format : MPEG Audio
    Format version : Version 1
    Format profile : Layer 2
    Duration : 1h 22mn
    Bit rate mode : Constant
    Bit rate : 192 Kbps
    Channel(s) : 2 channels
    Sampling rate : 48.0 KHz
    Compression mode : Lossy
    Stream size : 114 MiB (9%)
    Download .torrent

    Download free and at maximum speed!

    How to Download? · What is a torrent? · Ratings and Limitations

    The site does not extend and does not store electronic(digital) versions of products, and only gives access to a reference catalogue created by users on torrent-files which contain only lists of the hash-sums, the earnest entreaty, with complaints(abuse) to access directly to the user. Files for an exchange on tracker are given by users of a site, and the administration does not bear the responsibility for their maintenance. The request to not fill in the files protected by copyrights, and also files of the illegal maintenance!

    [Profile] [PM]
    Display posts from previous:    
    Reply to topic

    The time now is: Today 08:13

    All times are GMT + 3 Hours

    You cannot post new topics in this forum
    You cannot reply to topics in this forum
    You cannot edit your posts in this forum
    You cannot delete your posts in this forum
    You cannot vote in polls in this forum
    You cannot attach files in this forum
    You cannot download files in this forum