BitTorrentTracker PerecTracker.org
BitTorrentTracker PerecTracker.org
    
Регистрация  ·  Вход
 
 · 
Забыли пароль?

  • Приключения Бэйли: Рождественский герой / Adventures of Bailey: Christmas Hero (Стив Франке / Steve Franke) [2012, США, Семейный, приключения, DVB] DVO (Gulli)

    Ответить на тему
     
    Автор Сообщение

    rechyn

    Создавать темы 03-Мар-2015 22:53

           

    [Цитировать]

    Приключения Бэйли: Рождественский герой / Adventures of Bailey: Christmas Hero
    Страна: США
    Жанр: Семейный, приключения
    Год выпуска: 2012
    Продолжительность: 01:22:56
    Перевод: Профессиональный (двухголосый закадровый) Канал "Gulli"
    Cубтитры: нет
    Оригинальная аудиодорожка: нет
    Режиссер: Стив Франке / Steve Franke
    В ролях: Рик Шью, Трей Бампасс, Кристин Галиэн, Лизбет Карденас, Грант Джеймс, Джули Эриксон, Кензи Пэллоун
    Описание: Невероятные рождественские приключения пса Бейли, которые помогут ему понять весь смысл Рождества и почувствовать дух этого праздника.
    Семпл: http://sendfile.su/1090959
    Качество видео: DVB
    Формат видео: MPG
    Видео: 720x576 (4:3) @ 768x576, 25.000 fps, MPEG-2 Video, ~1816 Kbps, 0.175 bits/pixel
    Аудио: 48.0 KHz, MPEG-1 Audio layer 2, 2 ch, 192 Kbps
    MediaInfo
    General
    Complete name : Adventures of Bailey - Christmas Hero 2012 Gulli DVO.mpg
    Format : MPEG-PS
    File size : 1.19 GiB
    Duration : 1h 22mn
    Overall bit rate mode : Variable
    Overall bit rate : 2 048 Kbps
    Video
    ID : 224 (0xE0)
    Format : MPEG Video
    Format version : Version 2
    Format profile : Main@Main
    Format settings, BVOP : Yes
    Format settings, Matrix : Custom
    Format settings, GOP : Variable
    Format settings, picture structure : Frame
    Duration : 1h 22mn
    Bit rate mode : Variable
    Bit rate : 1 816 Kbps
    Maximum bit rate : 15.0 Mbps
    Width : 720 pixels
    Height : 576 pixels
    Display aspect ratio : 4:3
    Frame rate : 25.000 fps
    Standard : PAL
    Color space : YUV
    Chroma subsampling : 4:2:0
    Bit depth : 8 bits
    Scan type : Interlaced
    Scan order : Top Field First
    Compression mode : Lossy
    Bits/(Pixel*Frame) : 0.175
    Time code of first frame : 00:00:00:00
    Time code source : Group of pictures header
    GOP, Open/Closed : Open
    Stream size : 1.05 GiB (89%)
    GOP, Open/Closed of first frame : Closed
    Audio
    ID : 192 (0xC0)
    Format : MPEG Audio
    Format version : Version 1
    Format profile : Layer 2
    Duration : 1h 22mn
    Bit rate mode : Constant
    Bit rate : 192 Kbps
    Channel(s) : 2 channels
    Sampling rate : 48.0 KHz
    Compression mode : Lossy
    Stream size : 114 MiB (9%)
    Скриншоты
    Скачать .torrent

    Скачать торрент-файл бесплатно и на максимальной скорости!

    Как скачивать? · Что такое торрент? · Рейтинг и ограничения

    !ВНИМАНИЕ!
    Сайт не распространяет и не хранит электронные версии произведений, а занимается лишь лишь предоставлением доступа к создаваемому пользователями каталогу ссылок на торрент-файлы, которые содержат только списки хеш-сумм, убедительная просьба с жалобами обращаться напрямую к пользователю. Файлы для обмена на трекере предоставлены пользователями сайта, и администрация не несёт ответственности за их содержание. Просьба не заливать файлы, защищенные авторскими правами, а также файлы нелегального содержания!


    _________________
    [Профиль] [ЛС]
    Показать сообщения:    
    Ответить на тему

    Текущее время: Сегодня, в 06:35

    Часовой пояс: GMT + 2



    Вы не можете начинать темы
    Вы не можете отвечать на сообщения
    Вы не можете редактировать свои сообщения
    Вы не можете удалять свои сообщения
    Вы не можете голосовать в опросах
    Вы не можете прикреплять файлы к сообщениям
    Вы не можете скачивать файлы