Register  ·  Log in
Forgot password?

  • Слишком женат / Муж двух жен / Run for your Wife (Рэй Куни / Ray Cooney, Джон Лутон / John Luton) [2012, Великобритания, комедия, HDTVRip] DVO (Amedia Premium HD)

    Reply to topic
    Author Message


    Post 03-Mar-2015 23:53



    Слишком женат / Муж двух жен / Run for your Wife
    Страна: Великобритания
    Жанр: комедия
    Год выпуска: 2012
    Продолжительность: 01:29:45
    Перевод: Профессиональный (двухголосый закадровый) Amedia Premium HD
    Cубтитры: нет
    Режиссер: Рэй Куни / Ray Cooney, Джон Лутон / John Luton
    В ролях: Дэнни Дайер, Дениз Ван Оутен, Сара Хардинг, Нил Мориссей, Келли Ширли, Кристофер Биггинс, Лайонел Блэр, Николя Ле Прево, Бен Картрайт, Дерек Гриффитс…
    Описание: У таксиста Джона Смита (Дэнни Дайер) просто замечательная жизнь! Он счастлив и строит на будущее самые радужные планы. Как вдруг, одно происшествие переворачивает все его существование буквально вверх дном.
    Доп. информация: За исходник спасибо vedigo
    Качество видео: HDTVRip
    Формат видео: AVI
    Видео: 720x304 (2.37:1), 25 fps, XviD build 50 ~1788 kbps avg, 0.33 bit/pixel
    Аудио: 48 kHz, AC3 Dolby Digital, 3/2 (L,C,R,l,r) + LFE ch, ~384 kbps
    Муж двух жен - Run for your Wife [by Edich2].avi
    Format : AVI
    Format/Info : Audio Video Interleave
    File size : 1.37 GiB
    Duration : 1h 29mn
    Overall bit rate : 2 182 Kbps
    Movie name : Муж двух жен - Run for your Wife [by Edich2]
    Director : by Edich2
    Writing application : VirtualDubMod | || (build 2550/release)
    Comment :
    ID : 0
    Format : MPEG-4 Visual
    Format profile : Advanced Simple@L5
    Format settings, BVOP : 1
    Format settings, QPel : No
    Format settings, GMC : No warppoints
    Format settings, Matrix : Default (MPEG)
    Codec ID : XVID
    Codec ID/Hint : XviD
    Duration : 1h 29mn
    Bit rate : 1 789 Kbps
    Width : 720 pixels
    Height : 304 pixels
    Display aspect ratio : 2.35:1
    Frame rate : 25.000 fps
    Color space : YUV
    Chroma subsampling : 4:2:0
    Bit depth : 8 bits
    Scan type : Progressive
    Compression mode : Lossy
    Bits/(Pixel*Frame) : 0.327
    Stream size : 1.12 GiB (82%)
    Writing library : XviD 1.2.1 (UTC 2008-12-04)
    ID : 1
    Format : AC-3
    Format/Info : Audio Coding 3
    Mode extension : CM (complete main)
    Format settings, Endianness : Big
    Codec ID : 2000
    Duration : 1h 29mn
    Bit rate mode : Constant
    Bit rate : 384 Kbps
    Channel(s) : 6 channels
    Channel positions : Front: L C R, Side: L R, LFE
    Sampling rate : 48.0 KHz
    Bit depth : 16 bits
    Compression mode : Lossy
    Stream size : 247 MiB (18%)
    Alignment : Split accross interleaves
    Interleave, duration : 40 ms (1.00 video frame)
    Interleave, preload duration : 500 ms

    Download .torrent

    Download free and at maximum speed!

    How to Download? · What is a torrent? · Ratings and Limitations

    The site does not extend and does not store electronic(digital) versions of products, and only gives access to a reference catalogue created by users on torrent-files which contain only lists of the hash-sums, the earnest entreaty, with complaints(abuse) to access directly to the user. Files for an exchange on tracker are given by users of a site, and the administration does not bear the responsibility for their maintenance. The request to not fill in the files protected by copyrights, and also files of the illegal maintenance!

    [Profile] [PM]
    Display posts from previous:    
    Reply to topic

    The time now is: Today 14:15

    All times are GMT + 3 Hours

    You cannot post new topics in this forum
    You cannot reply to topics in this forum
    You cannot edit your posts in this forum
    You cannot delete your posts in this forum
    You cannot vote in polls in this forum
    You cannot attach files in this forum
    You cannot download files in this forum