BitTorrentTracker PerecTracker.org
BitTorrentTracker PerecTracker.org
    
Регистрация  ·  Вход
 
 · 
Забыли пароль?

  • Плавни / Миниатюрный остров / La Isla Minima / Marshland (Альберто Родригес / Alberto Rodríguez) [2014, Испания, детектив, HDRip] DVO (Колобок)

    Ответить на тему
     
    Автор Сообщение

    rechyn

    Создавать темы 03-Мар-2015 22:53

           

    [Цитировать]

    Плавни / Миниатюрный остров / La Isla Minima / Marshland
    Страна: Испания
    Жанр: детектив
    Год выпуска: 2014
    Продолжительность: 01:44:15
    Перевод: Любительский (двухголосый закадровый) Колобок
    Cубтитры: нет
    Режиссер: Альберто Родригес / Alberto Rodríguez
    В ролях: Хавьер Гутьеррес, Рауль Аревало, Нереа Баррос, Адельфа Калво, Хесус Карроса, Хесус Кастро
    Описание: 1980 год. Хуан и Педро — двое полицейских отдела по расследованию убийств Мадрида, идеологические противники — после получения выговоров в наказание должны перебраться в отдаленные и забытые людьми болота Гвадалквивир, чтобы расследовать исчезновение и жестокое убийство двух девочек-подростков во время празднования местного праздника. Вместе они должны преодолеть свои разногласия и найти и противостоять жестокому убийце…

    Доп. информация: Перевод: Antonio
    Озвучка: DeadSno & den904
    Сэмпл: http://multi-up.com/1035820
    Качество видео: HDRip
    Формат видео: AVI
    Видео: 688x288 (2.39:1), 23.976 fps, XviD build 73 ~870 kbps avg, 0.18 bit/pixel
    Аудио: 48 kHz, MPEG Layer 3, 2 ch, ~128.00 kbps avg
    MediaInfo
    Формат : AVI
    Формат/Информация : Audio Video Interleave
    Размер файла : 752 Мбайт
    Продолжительность : 1 ч. 44 м.
    Общий поток : 1008 Кбит/сек
    Программа кодирования : VirtualDubMod 1.5.10.3 | www.virtualdub-fr.org || (build 2550/release)
    Библиотека кодирования : VirtualDubMod build 2550/release
    Видео
    Идентификатор : 0
    Формат : MPEG-4 Visual
    Профиль формата : Advanced Simple@L5
    Параметр BVOP формата : 1
    Параметр QPel формата : Нет
    Параметр GMC формата : Без точки перехода
    Параметр матрицы формата : Выборочная
    Идентификатор кодека : XVID
    Идентификатор кодека/Подсказка : XviD
    Продолжительность : 1 ч. 44 м.
    Битрейт : 871 Кбит/сек
    Ширина : 688 пикселей
    Высота : 288 пикселей
    Соотношение сторон : 2,40:1
    Частота кадров : 23,976 кадра/сек
    Цветовое пространство : YUV
    Субдискретизация насыщенности : 4:2:0
    Битовая глубина : 8 бит
    Тип развёртки : Прогрессивная
    Метод сжатия : С потерями
    Бит/(Пиксели*Кадры) : 0.183
    Размер потока : 649 Мбайт (86%)
    Библиотека кодирования : XviD 73
    Аудио
    Идентификатор : 1
    Формат : MPEG Audio
    Версия формата : Version 1
    Профиль формата : Layer 3
    Идентификатор кодека : 55
    Идентификатор кодека/Подсказка : MP3
    Продолжительность : 1 ч. 44 м.
    Вид битрейта : Постоянный
    Битрейт : 128 Кбит/сек
    Каналы : 2 канала
    Частота : 48,0 КГц
    Метод сжатия : С потерями
    Размер потока : 95,5 Мбайт (13%)
    Выравнивание : Соединение по промежуткам
    Продолжительность промежутка : 42 мс. (1,00 видеокадр)
    Время предзагрузки промежутка : 504 мс.
    Библиотека кодирования : LAME3.99r
    Настройки программы : -m s -V 4 -q 2 -lowpass 17 -b 128
    Скриншоты
    Скачать .torrent

    Скачать торрент-файл бесплатно и на максимальной скорости!

    Как скачивать? · Что такое торрент? · Рейтинг и ограничения

    !ВНИМАНИЕ!
    Сайт не распространяет и не хранит электронные версии произведений, а занимается лишь лишь предоставлением доступа к создаваемому пользователями каталогу ссылок на торрент-файлы, которые содержат только списки хеш-сумм, убедительная просьба с жалобами обращаться напрямую к пользователю. Файлы для обмена на трекере предоставлены пользователями сайта, и администрация не несёт ответственности за их содержание. Просьба не заливать файлы, защищенные авторскими правами, а также файлы нелегального содержания!


    _________________
    [Профиль] [ЛС]
    Показать сообщения:    
    Ответить на тему

    Текущее время: Сегодня, в 06:40

    Часовой пояс: GMT + 2



    Вы не можете начинать темы
    Вы не можете отвечать на сообщения
    Вы не можете редактировать свои сообщения
    Вы не можете удалять свои сообщения
    Вы не можете голосовать в опросах
    Вы не можете прикреплять файлы к сообщениям
    Вы не можете скачивать файлы