BitTorrentTracker PerecTracker.org
BitTorrentTracker PerecTracker.org
    
Регистрация  ·  Вход
 
 · 
Забыли пароль?

  • Многорукая богиня / La deesse aux cent bras (Сильвен Моно / Sylvain Monod) [2013, Франция, комедия, DVB] Original (Fre) + Sub (rus)

    Ответить на тему
     
    Автор Сообщение

    rechyn

    Создавать темы 03-Мар-2015 22:53

           

    [Цитировать]

    Многорукая богиня
    La déesse aux cent bras-Страна: Франция
    Жанр: комедия
    Год выпуска: 2013
    Продолжительность: 01:26:33
    Перевод: Субтитры (перевод К.Семенюк, Éclair Group)
    Cубтитры: русские
    Оригинальная аудиодорожка: французский
    Режиссер: Сильвен Моно / Sylvain MonodВ ролях: Кристиана Реали / Cristiana Réali (Vanina/Nina), Робер Планьоль / Robert Plagnol (Greg), Анжель Гарнье / Angèle Garnier (Jody), Жан-Батист Фонк / Jean-Baptiste Fonck (Romain), Рюфюс / Rufus (Le Dantec), Эрик Наггар / Eric Naggar (Monsieur de Cordoue)
    Описание: Ванина желает тихой семейной жизни и стремится, чтобы ее семья выглядела в глазах других просто идеальной. Но ее дочь страдает от подростковой тоски, сын увлечен мистицизмом, а муж подумывает о разводе. В отчаянии она решает явить свету второе я – Нину, полную свою противоположность…
    Доп. информация: TV5MONDE DVB-S

    Качество видео: DVB
    Формат видео: MKV
    Видео: MPEG Video 2, 704x576@1024x576 (16:9), 25 fps, ~2604 kbps avg, 0.257 bit/pixel
    Аудио: Французский (MPEG Audio 2, 2 ch, 48 kHz, ~192.00 kbps avg)
    Формат субтитров: hardsub (неотключаемые)
    MediaInfo
    ОбщееУникальный идентификатор : 176848129474327042877355460446720569353 (0x850BB5F80F66FDD0957344C8094F3009)Полное имя : E:\My Torrents 2\[apreder]La_deesse_aux_cent_bras(2013)DVB.mkvФормат : MatroskaВерсия формата : Version 2Размер файла : 1,72 ГбайтПродолжительность : 1 ч. 26 м.Режим общего битрейта : ПеременныйОбщий поток : 2853 Кбит/секДата кодирования : UTC 2015-03-01 13:32:17Программа кодирования : mkvmerge v7.6.0 ('Garden of Dreams') 64bit built on Feb 8 2015 13:04:34Библиотека кодирования : libebml v1.3.1 + libmatroska v1.4.2
    ВидеоИдентификатор : 1Формат : MPEG VideoВерсия формата : Version 2Профиль формата : Main@MainПараметр BVOP формата : ДаПараметр матрицы формата : ВыборочнаяПараметр GOP формата : M=3, N=15Format_Settings_PictureStructure : FrameИдентификатор кодека : V_MPEG2Идентификатор кодека/Информация : MPEG 1 or 2 VideoПродолжительность : 1 ч. 26 м.Вид битрейта : ПеременныйБитрейт : 2604 Кбит/секШирина : 704 пикселяВысота : 576 пикселейСоотношение сторон : 16:9Режим частоты кадров : ПостоянныйЧастота кадров : 25,000 кадров/секСтандарт вещания : PALЦветовое пространство : YUVСубдискретизация насыщенности : 4:2:0Битовая глубина : 8 битТип развёртки : ЧересстрочнаяПорядок развёртки : Верхнее поле первоеМетод сжатия : С потерямиБит/(Пиксели*Кадры) : 0.257Временной код первого кадра : 00:00:00:00Оригинал временного кода : Group of pictures headerРазмер потока : 1,57 Гбайт (91%)Default : ДаForced : НетGop_OpenClosed_FirstFrame : Closed
    АудиоИдентификатор : 2Формат : MPEG AudioВерсия формата : Version 1Профиль формата : Layer 2Идентификатор кодека : A_MPEG/L2Идентификатор кодека/Подсказка : MP2Продолжительность : 1 ч. 26 м.Вид битрейта : ПостоянныйБитрейт : 192 Кбит/секКаналы : 2 каналаЧастота : 48,0 КГцМетод сжатия : С потерямиРазмер потока : 119 Мбайт (7%)Язык : FrenchDefault : ДаForced : Нет
    Скриншот c названием фильма
    Скриншоты


    Резервные скриншоты

    -[2'146]
    Скачать .torrent

    Скачать торрент-файл бесплатно и на максимальной скорости!

    Как скачивать? · Что такое торрент? · Рейтинг и ограничения

    !ВНИМАНИЕ!
    Сайт не распространяет и не хранит электронные версии произведений, а занимается лишь лишь предоставлением доступа к создаваемому пользователями каталогу ссылок на торрент-файлы, которые содержат только списки хеш-сумм, убедительная просьба с жалобами обращаться напрямую к пользователю. Файлы для обмена на трекере предоставлены пользователями сайта, и администрация не несёт ответственности за их содержание. Просьба не заливать файлы, защищенные авторскими правами, а также файлы нелегального содержания!


    _________________
    [Профиль] [ЛС]
    Показать сообщения:    
    Ответить на тему

    Текущее время: Сегодня, в 17:38

    Часовой пояс: GMT + 2



    Вы не можете начинать темы
    Вы не можете отвечать на сообщения
    Вы не можете редактировать свои сообщения
    Вы не можете удалять свои сообщения
    Вы не можете голосовать в опросах
    Вы не можете прикреплять файлы к сообщениям
    Вы не можете скачивать файлы