BitTorrentTracker PerecTracker.org
BitTorrentTracker PerecTracker.org
    
Регистрация  ·  Вход
 
 · 
Забыли пароль?

  • Лофт / The Loft (Эрик Ван Лой / Erik Van Looy) [2014, Бельгия, США, триллер, WEB-DLRip] Dub

    Ответить на тему
     
    Автор Сообщение

    rechyn

    Создавать темы 03-Мар-2015 22:53

           

    [Цитировать]

    Лофт / The Loft
    Страна: Бельгия, США
    Жанр: триллер
    Год выпуска: 2014
    Продолжительность:01:38:22
    Перевод: Профессиональный (полное дублирование)
    Оригинальная аудиодорожка: нет
    Cубтитры: нет
    Режиссер: Эрик Ван Лой / Erik Van Looy
    В ролях:Карл Урбан, Джеймс Марсден, Вентворт Миллер, Эрик Стоунстрит, Маттиас Шонартс, Изабель Лукас, Рэйчел Тейлор, Рона Митра, Валери Крус, Кали Роча
    Описание: Пятеро женатых друзей решают совместно снять респектабельную квартиру, чтобы приводить туда любовниц и реализовывать свои сексуальные фантазии. Но однажды они находят в квартире обнаженное тело убитой женщины… Все пятеро подозревают в убийстве друг друга.

    Качество: HDRip
    Контейнер: AVI
    Видео: 688x240 (2.87:1), 25 fps, XviD build 73 ~918 kbps avg, 0.22 bit/pixel
    Аудио: 48 kHz, MPEG Layer 3, 2 ch, ~128.00 kbps avg

    MI
    Общее
    Полное имя : C:\Users\Вячеслав\Downloads\Лофт_WEB-DLRip_745_Некул.avi
    Формат : AVI
    Формат/Информация : Audio Video Interleave
    Размер файла : 746 Мбайт
    Продолжительность : 1 ч. 38 м.
    Общий поток : 1060 Кбит/сек
    Название фильма : Loft.2014.D.WEB-DL.720p.ELEKTRI4KA.uniongang.tv [3imeMachi9e]
    Дата записи : -1
    Программа кодирования : XviD4PSP 7.0 / 55.48.100
    Примечание : MATROSKA,WEBM > AVI / H264 > XVID CBR 998kbps HQ / AC3 > MP3 CBR 128kbps HQ
    Видео
    Идентификатор : 0
    Формат : MPEG-4 Visual
    Профиль формата : Advanced Simple@L5
    Параметр BVOP формата : 1
    Параметр QPel формата : Нет
    Параметр GMC формата : Без точки перехода
    Параметр матрицы формата : Default (H.263)
    Идентификатор кодека : XVID
    Идентификатор кодека/Подсказка : XviD
    Продолжительность : 1 ч. 38 м.
    Битрейт : 919 Кбит/сек
    Ширина : 688 пикселей
    Высота : 240 пикселей
    Соотношение сторон : 2,855
    Частота кадров : 25,000 кадров/сек
    Цветовое пространство : YUV
    Субдискретизация насыщенности : 4:2:0
    Битовая глубина : 8 бит
    Тип развёртки : Прогрессивная
    Метод сжатия : С потерями
    Бит/(Пиксели*Кадры) : 0.223
    Размер потока : 647 Мбайт (87%)
    Заголовок : Loft.2014.D.WEB-DL.720p.ELEKTRI4KA.uniongang.tv [3imeMachi9e]
    Библиотека кодирования : XviD 73
    Аудио
    Идентификатор : 1
    Формат : MPEG Audio
    Версия формата : Version 1
    Профиль формата : Layer 3
    Режим : Joint stereo
    Расширение режима : MS Stereo
    Идентификатор кодека : 55
    Идентификатор кодека/Подсказка : MP3
    Продолжительность : 1 ч. 38 м.
    Вид битрейта : Постоянный
    Битрейт : 128 Кбит/сек
    Каналы : 2 канала
    Частота : 48,0 КГц
    Метод сжатия : С потерями
    Размер потока : 90,1 Мбайт (12%)
    Выравнивание : Соединение по промежуткам
    Продолжительность промежутка : 24 мс. (0,60 видеокадр)
    Время предзагрузки промежутка : 24 мс.
    Заголовок : Dub [5.1] - Loft.2014.D.WEB-DL.720p.ELEKTRI4KA.uniongang.tv [3imeMachi9e]
    Библиотека кодирования : LAME3.99
    Скриншоты
    Скачать .torrent

    Скачать торрент-файл бесплатно и на максимальной скорости!

    Как скачивать? · Что такое торрент? · Рейтинг и ограничения

    !ВНИМАНИЕ!
    Сайт не распространяет и не хранит электронные версии произведений, а занимается лишь лишь предоставлением доступа к создаваемому пользователями каталогу ссылок на торрент-файлы, которые содержат только списки хеш-сумм, убедительная просьба с жалобами обращаться напрямую к пользователю. Файлы для обмена на трекере предоставлены пользователями сайта, и администрация не несёт ответственности за их содержание. Просьба не заливать файлы, защищенные авторскими правами, а также файлы нелегального содержания!


    _________________
    [Профиль] [ЛС]
    Показать сообщения:    
    Ответить на тему

    Текущее время: Сегодня, в 06:58

    Часовой пояс: GMT + 2



    Вы не можете начинать темы
    Вы не можете отвечать на сообщения
    Вы не можете редактировать свои сообщения
    Вы не можете удалять свои сообщения
    Вы не можете голосовать в опросах
    Вы не можете прикреплять файлы к сообщениям
    Вы не можете скачивать файлы