BitTorrentTracker PerecTracker.org
BitTorrentTracker PerecTracker.org
    
Регистрация  ·  Вход
 
 · 
Забыли пароль?

  • Чудесное путешествие Нильса с дикими гусями (1-4 серии из 4) / Nils Holgerssons wunderbare Reise (Дирк Регель / Dirk Regel) [2011, Германия, Швеция, Сказка, фэнтези, семейный, SATRip] MVO

    Ответить на тему
     
    Автор Сообщение

    rechyn

    Создавать темы 03-Мар-2015 22:52

           

    [Цитировать]

    Чудесное путешествие Нильса с дикими гусями / Nils Holgerssons wunderbare Reise
    Страна: Германия, Швеция
    Жанр: Сказка, фэнтези, семейный
    Год выпуска: 2011
    Продолжительность: 00:56:26 + 00:58:09 + 00:58:21 + 00:57:19
    Перевод: Профессиональный (многоголосый закадровый) - (Фильм переведён и озвучен компанией "Игмар" (Канал "Gulli")
    Cубтитры: нет
    Оригинальная аудиодорожка: нет
    Режиссер: Дирк Регель / Dirk Regel
    В ролях: Юстус Каммерер, Сесилия Юнг, Ханнс Цишлер, Курт Крюмер, Штефани Япп, Хиннерк Шонеманн, Йохан Рхеборг
    Описание: По сказочной повести шведской писательницы Сельмы Лагерлёф. Тринадцатилетний Нильс мечтает лежать где-нибудь на травке, подшучивая над окружающими, а также, проводить время с симпатичной Асей, в которую по уши влюблен. Но он вынужден помогать родителям на ферме, ухаживая за скотом. В один прекрасный день жизнь Нильса круто меняется - волшебным образом он уменьшается до размеров карлика, более того, он начинает понимать язык животных! Есть только один способ снова вырасти - это стать добрым и отзывчивым мальчиком, но Нильс пока об это не догадывается...
    Сэмпл: http://sendfile.su/1087959
    Качество видео: SATRip
    Формат видео: AVI
    Видео: Xvid, 720x400, 25fps, 1 500 Kbps, 0.208 bits/pixel
    Аудио: AC3, 48000Hz, stereo, 192kbps
    Список серий
    01. В путь / Der Aufbruch
    02. Путешествие / Die Reise
    03. Испытание / Die Bewahrung
    04. Возвращение домой / Die Heimkehr
    MediaInfo
    C:\Users\Dmitriy\Documents\Чудесное путешествие Нильса с дикими гусями.2011.XviD.SATRip\01. В путь.avi
    General
    Complete name : C:\Users\Dmitriy\Documents\Чудесное путешествие Нильса с дикими гусями.2011.XviD.SATRip\01. В путь.avi
    Format : AVI
    Format/Info : Audio Video Interleave
    File size : 687 MiB
    Duration : 56mn 26s
    Overall bit rate : 1 702 Kbps
    Movie name : Nils Holgerssons wunderbare Reise (e01) Der Aufbruch
    Director : SATRip by Thunder
    Writing application : VirtualDubMod 1.5.10.3 | www.virtualdub-fr.org || (build 2550/release)
    Video #0
    ID : 0
    Format : MPEG-4 Visual
    Format profile : Advanced Simple@L5
    Format settings, BVOP : Yes
    Format settings, QPel : No
    Format settings, GMC : No warppoints
    Format settings, Matrix : Default (H.263)
    Codec ID : XVID
    Codec ID/Hint : XviD
    Duration : 56mn 26s
    Bit rate : 1 500 Kbps
    Width : 720 pixels
    Height : 400 pixels
    Display aspect ratio : 16:9
    Frame rate : 25.000 fps
    Color space : YUV
    Chroma subsampling : 4:2:0
    Bit depth : 8 bits
    Scan type : Progressive
    Bits/(Pixel*Frame) : 0.208
    Stream size : 605 MiB (88%)
    Writing library : XviD 1.2.1 (UTC 2008-12-04)
    Audio #1
    ID : 1
    Format : AC-3
    Format/Info : Audio Coding 3
    Mode extension : CM (complete main)
    Codec ID : 2000
    Duration : 56mn 26s
    Bit rate mode : Constant
    Bit rate : 192 Kbps
    Channel(s) : 2 channels
    Channel positions : Front: L R
    Sampling rate : 48.0 KHz
    Bit depth : 16 bits
    Stream size : 77.5 MiB (11%)
    Alignment : Split accross interleaves
    Interleave, duration : 40 ms (1.00 video frame)
    Interleave, preload duration : 500 ms
    C:\Users\Dmitriy\Documents\Чудесное путешествие Нильса с дикими гусями.2011.XviD.SATRip\02. Путешествие.avi
    General
    Complete name : C:\Users\Dmitriy\Documents\Чудесное путешествие Нильса с дикими гусями.2011.XviD.SATRip\02. Путешествие.avi
    Format : AVI
    Format/Info : Audio Video Interleave
    File size : 708 MiB
    Duration : 58mn 9s
    Overall bit rate : 1 702 Kbps
    Movie name : Nils Holgerssons wunderbare Reise (e02) Die Reise
    Director : SATRip by Thunder
    Writing application : VirtualDubMod 1.5.10.3 | www.virtualdub-fr.org || (build 2550/release)
    Video #0
    ID : 0
    Format : MPEG-4 Visual
    Format profile : Advanced Simple@L5
    Format settings, BVOP : Yes
    Format settings, QPel : No
    Format settings, GMC : No warppoints
    Format settings, Matrix : Default (H.263)
    Codec ID : XVID
    Codec ID/Hint : XviD
    Duration : 58mn 9s
    Bit rate : 1 500 Kbps
    Width : 720 pixels
    Height : 400 pixels
    Display aspect ratio : 16:9
    Frame rate : 25.000 fps
    Color space : YUV
    Chroma subsampling : 4:2:0
    Bit depth : 8 bits
    Scan type : Progressive
    Bits/(Pixel*Frame) : 0.208
    Stream size : 624 MiB (88%)
    Writing library : XviD 1.2.1 (UTC 2008-12-04)
    Audio #1
    ID : 1
    Format : AC-3
    Format/Info : Audio Coding 3
    Mode extension : CM (complete main)
    Codec ID : 2000
    Duration : 58mn 9s
    Bit rate mode : Constant
    Bit rate : 192 Kbps
    Channel(s) : 2 channels
    Channel positions : Front: L R
    Sampling rate : 48.0 KHz
    Bit depth : 16 bits
    Stream size : 79.9 MiB (11%)
    Alignment : Split accross interleaves
    Interleave, duration : 40 ms (1.00 video frame)
    Interleave, preload duration : 500 ms
    C:\Users\Dmitriy\Documents\Чудесное путешествие Нильса с дикими гусями.2011.XviD.SATRip\03. Испытание.avi
    General
    Complete name : C:\Users\Dmitriy\Documents\Чудесное путешествие Нильса с дикими гусями.2011.XviD.SATRip\03. Испытание.avi
    Format : AVI
    Format/Info : Audio Video Interleave
    File size : 710 MiB
    Duration : 58mn 21s
    Overall bit rate : 1 701 Kbps
    Writing application : VirtualDubMod 1.5.10.3 | www.virtualdub-fr.org || (build 2550/release)
    Video #0
    ID : 0
    Format : MPEG-4 Visual
    Format profile : Advanced Simple@L5
    Format settings, BVOP : Yes
    Format settings, QPel : No
    Format settings, GMC : No warppoints
    Format settings, Matrix : Default (H.263)
    Codec ID : XVID
    Codec ID/Hint : XviD
    Duration : 58mn 21s
    Bit rate : 1 500 Kbps
    Width : 720 pixels
    Height : 400 pixels
    Display aspect ratio : 16:9
    Frame rate : 25.000 fps
    Color space : YUV
    Chroma subsampling : 4:2:0
    Bit depth : 8 bits
    Scan type : Progressive
    Bits/(Pixel*Frame) : 0.208
    Stream size : 626 MiB (88%)
    Writing library : XviD 1.2.1 (UTC 2008-12-04)
    Audio #1
    ID : 1
    Format : AC-3
    Format/Info : Audio Coding 3
    Mode extension : CM (complete main)
    Codec ID : 2000
    Duration : 58mn 21s
    Bit rate mode : Constant
    Bit rate : 192 Kbps
    Channel(s) : 2 channels
    Channel positions : Front: L R
    Sampling rate : 48.0 KHz
    Bit depth : 16 bits
    Stream size : 80.1 MiB (11%)
    Alignment : Split accross interleaves
    Interleave, duration : 40 ms (1.00 video frame)
    Interleave, preload duration : 500 ms
    C:\Users\Dmitriy\Documents\Чудесное путешествие Нильса с дикими гусями.2011.XviD.SATRip\04. Возвращение домой.avi
    General
    Complete name : C:\Users\Dmitriy\Documents\Чудесное путешествие Нильса с дикими гусями.2011.XviD.SATRip\04. Возвращение домой.avi
    Format : AVI
    Format/Info : Audio Video Interleave
    File size : 698 MiB
    Duration : 57mn 19s
    Overall bit rate : 1 701 Kbps
    Writing application : VirtualDubMod 1.5.10.3 | www.virtualdub-fr.org || (build 2550/release)
    Video #0
    ID : 0
    Format : MPEG-4 Visual
    Format profile : Advanced Simple@L5
    Format settings, BVOP : Yes
    Format settings, QPel : No
    Format settings, GMC : No warppoints
    Format settings, Matrix : Default (H.263)
    Codec ID : XVID
    Codec ID/Hint : XviD
    Duration : 57mn 19s
    Bit rate : 1 500 Kbps
    Width : 720 pixels
    Height : 400 pixels
    Display aspect ratio : 16:9
    Frame rate : 25.000 fps
    Color space : YUV
    Chroma subsampling : 4:2:0
    Bit depth : 8 bits
    Scan type : Progressive
    Bits/(Pixel*Frame) : 0.208
    Stream size : 615 MiB (88%)
    Writing library : XviD 1.2.1 (UTC 2008-12-04)
    Audio #1
    ID : 1
    Format : AC-3
    Format/Info : Audio Coding 3
    Mode extension : CM (complete main)
    Codec ID : 2000
    Duration : 57mn 19s
    Bit rate mode : Constant
    Bit rate : 192 Kbps
    Channel(s) : 2 channels
    Channel positions : Front: L R
    Sampling rate : 48.0 KHz
    Bit depth : 16 bits
    Stream size : 78.7 MiB (11%)
    Alignment : Split accross interleaves
    Interleave, duration : 40 ms (1.00 video frame)
    Interleave, preload duration : 500 ms
    Скриншоты


    Скачать .torrent

    Скачать торрент-файл бесплатно и на максимальной скорости!

    Как скачивать? · Что такое торрент? · Рейтинг и ограничения

    !ВНИМАНИЕ!
    Сайт не распространяет и не хранит электронные версии произведений, а занимается лишь лишь предоставлением доступа к создаваемому пользователями каталогу ссылок на торрент-файлы, которые содержат только списки хеш-сумм, убедительная просьба с жалобами обращаться напрямую к пользователю. Файлы для обмена на трекере предоставлены пользователями сайта, и администрация не несёт ответственности за их содержание. Просьба не заливать файлы, защищенные авторскими правами, а также файлы нелегального содержания!


    _________________
    [Профиль] [ЛС]
    Показать сообщения:    
    Ответить на тему

    Текущее время: Сегодня, в 19:37

    Часовой пояс: GMT + 2



    Вы не можете начинать темы
    Вы не можете отвечать на сообщения
    Вы не можете редактировать свои сообщения
    Вы не можете удалять свои сообщения
    Вы не можете голосовать в опросах
    Вы не можете прикреплять файлы к сообщениям
    Вы не можете скачивать файлы