Register  ·  Log in
Forgot password?

  • Снежная невеста / Snow Bride (Берт Киш / Bert Kish) [2013, США, семейный, драма, комедия, BDRip] MVO

    Reply to topic
    Author Message


    Post 03-Mar-2015 23:52



    Снежная невеста / Snow Bride
    Страна: США
    Жанр: семейный, драма, комедия
    Год выпуска: 2013
    Продолжительность: 01:25:19
    Перевод: Профессиональный (многоголосый закадровый)
    Cубтитры: нет
    Режиссер: Берт Киш / Bert Kish
    В ролях: Катрина Ло
    Джордан Бэлфи
    Патриция Ричардсон
    Сьюзи Абромейт
    Роберт Кертис-Браун
    Бобби Кампо
    Том Ленк
    Кит Андрин
    Alexis Auffray
    Дэна Баррон
    Описание: Грета Кейн всегда в поиске новостей. Она репортер колонки сплетен в одном из таблоидов Лос-Анжелеса. Ее работа — следить за богатыми и знаменитыми, но однажды случается так, что один из сыновей сенатора делает ей предложение руки и сердца.
    Доп. информация: За дорожку с канала Комедия ТВ спасибо ALENAVOVA
    Качество видео: BDRip [Snow Bride 2013 1080p BluRay x264-NOSCREENS]
    Формат видео: AVI
    Видео: 720x400 (1.80:1), 23.976 fps, XviD build 50 ~2092 kbps avg, 0.30 bit/pixel
    Аудио: 48 kHz, AC3 Dolby Digital, 2/0 (L,R) ch, ~192 kbps
    Снежная невеста - Snow Bride [by Edich2].avi
    Format : AVI
    Format/Info : Audio Video Interleave
    File size : 1.37 GiB
    Duration : 1h 25mn
    Overall bit rate : 2 294 Kbps
    Movie name : Снежная невеста - Snow Bride [by Edich2]
    Director : by Edich2
    Writing application : VirtualDubMod (build 2540/release)
    Comment :
    ID : 0
    Format : MPEG-4 Visual
    Format profile : Advanced Simple@L5
    Format settings, BVOP : 1
    Format settings, QPel : No
    Format settings, GMC : No warppoints
    Format settings, Matrix : Default (MPEG)
    Codec ID : XVID
    Codec ID/Hint : XviD
    Duration : 1h 25mn
    Bit rate : 2 093 Kbps
    Width : 720 pixels
    Height : 400 pixels
    Display aspect ratio : 16:9
    Frame rate : 23.976 fps
    Color space : YUV
    Chroma subsampling : 4:2:0
    Bit depth : 8 bits
    Scan type : Progressive
    Compression mode : Lossy
    Bits/(Pixel*Frame) : 0.303
    Stream size : 1.25 GiB (91%)
    Writing library : XviD 1.2.1 (UTC 2008-12-04)
    ID : 1
    Format : AC-3
    Format/Info : Audio Coding 3
    Mode extension : CM (complete main)
    Format settings, Endianness : Big
    Codec ID : 2000
    Duration : 1h 25mn
    Bit rate mode : Constant
    Bit rate : 192 Kbps
    Channel(s) : 2 channels
    Channel positions : Front: L R
    Sampling rate : 48.0 KHz
    Bit depth : 16 bits
    Compression mode : Lossy
    Delay relative to video : 1s 0ms
    Stream size : 117 MiB (8%)
    Alignment : Split accross interleaves
    Interleave, duration : 42 ms (1.00 video frame)
    Interleave, preload duration : 500 ms

    Download .torrent

    Download free and at maximum speed!

    How to Download? · What is a torrent? · Ratings and Limitations

    The site does not extend and does not store electronic(digital) versions of products, and only gives access to a reference catalogue created by users on torrent-files which contain only lists of the hash-sums, the earnest entreaty, with complaints(abuse) to access directly to the user. Files for an exchange on tracker are given by users of a site, and the administration does not bear the responsibility for their maintenance. The request to not fill in the files protected by copyrights, and also files of the illegal maintenance!

    [Profile] [PM]
    Display posts from previous:    
    Reply to topic

    The time now is: Today 16:57

    All times are GMT + 3 Hours

    You cannot post new topics in this forum
    You cannot reply to topics in this forum
    You cannot edit your posts in this forum
    You cannot delete your posts in this forum
    You cannot vote in polls in this forum
    You cannot attach files in this forum
    You cannot download files in this forum