BitTorrentTracker PerecTracker.org
BitTorrentTracker PerecTracker.org
    
Регистрация  ·  Вход
 
 · 
Забыли пароль?

  • Дом ужасов / The Scarehouse (Гэвин Бут / Gavin Booth) [2014, Канада, ужасы, WEB-DLRip] DVO (Колобок)

    Ответить на тему
     
    Автор Сообщение

    rechyn

    Создавать темы 03-Мар-2015 22:52

           

    [Цитировать]

    Дом ужасов / The Scarehouse
    Страна: Канада
    Жанр: ужасы
    Год выпуска: 2014
    Продолжительность: 01:24:05
    Перевод: Любительский (двухголосый закадровый) Колобок
    Cубтитры: нет
    Режиссер: Гэвин Бут Gavin Booth
    В ролях: Сара Хансен, Кимберли-Сью Мюррэй, Кэтерин Баррелл, Тиган Винс, Эмили Алатало, Даниэль Баркер
    Описание: Спустя два года после трагического происшествия во время инициации в сестринском обществе "СигмаКаппаДельта", шесть девушек из колледжа получают приглашения на закрытую вечеринку в честь Хэллоуина в Дом страха. Оказавшись внутри, девушки понимают, что вечеринка организована явно не для них, а веселье окончилось и настал момент истины.

    Доп. информация:
    Перевод: Мария Петрова
    Сэмпл: http://multi-up.com/1036130
    Качество видео: WEB-DLRip
    Формат видео: AVI
    Видео: DivX 5 720x304 29.97fps 1032Kbps
    Аудио: Dolby AC3 48000Hz stereo 192Kbps
    MediaInfo
    General
    Complete name : D:\TORRENTS\scarehouse.avi
    Format : AVI
    Format/Info : Audio Video Interleave
    File size : 744 MiB
    Duration : 1h 24mn
    Overall bit rate : 1 236 Kbps
    Video
    ID : 0
    Format : MPEG-4 Visual
    Format profile : Simple@L1
    Format settings, BVOP : No
    Format settings, QPel : No
    Format settings, GMC : No warppoints
    Format settings, Matrix : Default (H.263)
    Codec ID : DX50
    Codec ID/Hint : DivX 5
    Duration : 1h 24mn
    Bit rate : 1 033 Kbps
    Width : 720 pixels
    Height : 304 pixels
    Display aspect ratio : 2.35:1
    Frame rate : 29.970 fps
    Color space : YUV
    Chroma subsampling : 4:2:0
    Bit depth : 8 bits
    Scan type : Progressive
    Compression mode : Lossy
    Bits/(Pixel*Frame) : 0.157
    Stream size : 621 MiB (84%)
    Writing library : Lavc53.42.0
    Audio
    ID : 1
    Format : AC-3
    Format/Info : Audio Coding 3
    Mode extension : CM (complete main)
    Format settings, Endianness : Big
    Codec ID : 2000
    Duration : 1h 24mn
    Source duration : 1h 24mn
    Bit rate mode : Constant
    Bit rate : 192 Kbps
    Channel(s) : 2 channels
    Channel positions : Front: L R
    Sampling rate : 48.0 KHz
    Bit depth : 16 bits
    Compression mode : Lossy
    Stream size : 115 MiB (16%)
    Alignment : Aligned on interleaves
    Interleave, duration : 33 ms (1.00 video frame)
    Скриншот c названием фильма
    Скриншоты
    Скачать .torrent

    Скачать торрент-файл бесплатно и на максимальной скорости!

    Как скачивать? · Что такое торрент? · Рейтинг и ограничения

    !ВНИМАНИЕ!
    Сайт не распространяет и не хранит электронные версии произведений, а занимается лишь лишь предоставлением доступа к создаваемому пользователями каталогу ссылок на торрент-файлы, которые содержат только списки хеш-сумм, убедительная просьба с жалобами обращаться напрямую к пользователю. Файлы для обмена на трекере предоставлены пользователями сайта, и администрация не несёт ответственности за их содержание. Просьба не заливать файлы, защищенные авторскими правами, а также файлы нелегального содержания!


    _________________
    [Профиль] [ЛС]
    Показать сообщения:    
    Ответить на тему

    Текущее время: Сегодня, в 12:22

    Часовой пояс: GMT + 2



    Вы не можете начинать темы
    Вы не можете отвечать на сообщения
    Вы не можете редактировать свои сообщения
    Вы не можете удалять свои сообщения
    Вы не можете голосовать в опросах
    Вы не можете прикреплять файлы к сообщениям
    Вы не можете скачивать файлы