BitTorrentTracker PerecTracker.org
BitTorrentTracker PerecTracker.org
    
Регистрация  ·  Вход
 
 · 
Забыли пароль?

  • Империя чувств / Коррида любви / Ai no corrida (Нагиса Осима / Nagisa Oshima) [1976 г., Эротика, Мелодрама, Криминал, HDRip] AVO (Ю.Сербин) 2x DVO + JPN + ENG (commenary) + SUB (rus, eng)

    Ответить на тему
     
    Автор Сообщение

    Abbastar

    Создавать темы 14-Янв-2015 11:11

           

    [Цитировать]

    Империя Чувств (Коррида любви) / Ai no corrida
    -Страна: Франция, Япония
    Жанр: Эротика, Мелодрама, Криминал
    Год выпуска: 1976
    Продолжительность: 01:42:25-Перевод: Авторский (Ю.Сербин), Профессиональный (двухголосый закадровый)
    Cубтитры: русский (Ю.Сербин), английский-Режиссер: Нагиса Осима / Nagisa Oshima
    В ролях: Тацуя Фудзи /Tatsuya Fuji/, Эйко Мацуда /Eiko Matsuda/, Аои Накодзима /Aoi Nakajima/, Ясуко Мацуи /Yasuko Matsui/, Мэйка Сэри /Meika Seri/
    Описание: Пожалуй, одна из самых эротичных и в то же время непостижимо глубоких драм о всепожирающей, выходящей из под контроля плотской страсти между молодой японкой Садой и ее хозяином, которого она в конце убивает, отрезав ему пенис. Самое интересное, что основан фильм на реальных событиях.
    Четыре дня ходила Сада с отрезанным пенисом по улицам Токио, а когда ее арестовали, она сияла от счастья. Суд над ней потрясвсю Японию, к ней проявили снисхождение, и она была оправдана, получив странную популярность. Произошло это в 1936 в году.
    -Качество видео: HDRip [Ai.no.korida.1976.720p.BluRay.3xRus.Jap.HDCLUB-Skazhutin]
    Формат видео: AVI-Video: 720x432 (1.67:1), 23.976 fps, XviD build 50 ~1542 kbps avg, 0.21 bit/pixel
    Audio #1: 48 kHz, AC3 Dolby Digital, 1/0 (C) ch, ~96 kbps - Одноголосый, Ю. Сербин
    Audio #2: 48 kHz, AC3 Dolby Digital, 2/0 (L,R) ch, ~192 kbps - Двухголосый
    Audio #3: 48 kHz, AC3 Dolby Digital, 2/0 (L,R) ch, ~192 kbps - Двухголосый, R5, Кармен Видео
    Audio #4: 48 kHz, AC3 Dolby Digital, 1/0 (C) ch, ~96 kbps - Японский | Отдельно
    Audio #5: 48 kHz, AC3 Dolby Digital, 1/0 (C) ch, ~96 kbps - Английский (комментарии) | Отдельно
    Формат субтитров: SoftSub (srt) (Отдельно)
    -- --

    MediaInfo

    Общее
    Полное имя                       : E:\ФИЛЬМЫ\Ai.no.korida.1976.HDRip.andre90\Ai.no.korida.1976.HDRip.andre90.avi
    Формат                           : AVI
    Формат/Информация                : Audio Video Interleave
    Размер файла                     : 1,46 Гбайт
    Продолжительность                : 1 ч. 42 м.
    Общий поток                      : 2042 Кбит/сек
    Программа кодирования            : VirtualDubMod 1.5.10.2 (build 2540/release)
    Библиотека кодирования           : VirtualDubMod build 2540/release
    Видео
    Идентификатор                    : 0
    Формат                           : MPEG-4 Visual
    Профиль формата                  : Advanced Simple@L5
    Параметр BVOP формата            : 1
    Параметр QPel формата            : Нет
    Параметр GMC формата             : Без точки перехода
    Параметр матрицы формата         : Выборочная
    Идентификатор кодека             : XVID
    Идентификатор кодека/Подсказка   : XviD
    Продолжительность                : 1 ч. 42 м.
    Битрейт                          : 1543 Кбит/сек
    Ширина                           : 720 пикселей
    Высота                           : 432 пикселя
    Соотношение сторон               : 1,667
    Частота кадров                   : 23,976 кадра/сек
    Цветовое пространство            : YUV
    Субдискретизация насыщенности    : 4:2:0
    Битовая глубина                  : 8 бит
    Тип развёртки                    : Прогрессивная
    Метод сжатия                     : С потерями
    Бит/(Пиксели*Кадры)              : 0.207
    Размер потока                    : 1,10 Гбайт (76%)
    Библиотека кодирования           : XviD 1.2.1 (UTC 2008-12-04)
    Аудио #1
    Идентификатор                    : 1
    Формат                           : AC-3
    Формат/Информация                : Audio Coding 3
    Расширение режима                : CM (complete main)
    Идентификатор кодека             : 2000
    Продолжительность                : 1 ч. 42 м.
    Вид битрейта                     : Постоянный
    Битрейт                          : 96,0 Кбит/сек
    Каналы                           : 1 канал
    Расположение каналов             : Front: C
    Частота                          : 48,0 КГц
    Битовая глубина                  : 16 бит
    Метод сжатия                     : С потерями
    Размер потока                    : 70,3 Мбайт (5%)
    Выравнивание                     : Разделение по промежуткам
    Продолжительность промежутка     : 42  мс. (1,00 видеокадр)
    Время предзагрузки промежутка    : 500  мс.
    Заголовок                        : Одноголосый, Ю. Сербин
    Аудио #2
    Идентификатор                    : 2
    Формат                           : AC-3
    Формат/Информация                : Audio Coding 3
    Расширение режима                : CM (complete main)
    Идентификатор кодека             : 2000
    Продолжительность                : 1 ч. 42 м.
    Вид битрейта                     : Постоянный
    Битрейт                          : 192 Кбит/сек
    Каналы                           : 2 канала
    Расположение каналов             : Front: L R
    Частота                          : 48,0 КГц
    Битовая глубина                  : 16 бит
    Метод сжатия                     : С потерями
    Размер потока                    : 141 Мбайт (9%)
    Выравнивание                     : Разделение по промежуткам
    Продолжительность промежутка     : 42  мс. (1,00 видеокадр)
    Время предзагрузки промежутка    : 500  мс.
    Заголовок                        : Двухголосый
    Аудио #3
    Идентификатор                    : 3
    Формат                           : AC-3
    Формат/Информация                : Audio Coding 3
    Расширение режима                : CM (complete main)
    Идентификатор кодека             : 2000
    Продолжительность                : 1 ч. 42 м.
    Вид битрейта                     : Постоянный
    Битрейт                          : 192 Кбит/сек
    Каналы                           : 2 канала
    Расположение каналов             : Front: L R
    Частота                          : 48,0 КГц
    Битовая глубина                  : 16 бит
    Метод сжатия                     : С потерями
    Размер потока                    : 141 Мбайт (9%)
    Выравнивание                     : Разделение по промежуткам
    Продолжительность промежутка     : 42  мс. (1,00 видеокадр)
    Время предзагрузки промежутка    : 500  мс.
    Заголовок                        : Двухголосый, R5, Кармен Видео

    Скриншоты

    Скачать .torrent

    Скачать торрент-файл бесплатно и на максимальной скорости!

    Как скачивать? · Что такое торрент? · Рейтинг и ограничения

    !ВНИМАНИЕ!
    Сайт не распространяет и не хранит электронные версии произведений, а занимается лишь лишь предоставлением доступа к создаваемому пользователями каталогу ссылок на торрент-файлы, которые содержат только списки хеш-сумм, убедительная просьба с жалобами обращаться напрямую к пользователю. Файлы для обмена на трекере предоставлены пользователями сайта, и администрация не несёт ответственности за их содержание. Просьба не заливать файлы, защищенные авторскими правами, а также файлы нелегального содержания!


    _________________
    [Профиль] [ЛС]
    Показать сообщения:    
    Ответить на тему

    Текущее время: Сегодня, в 17:26

    Часовой пояс: GMT + 2



    Вы не можете начинать темы
    Вы не можете отвечать на сообщения
    Вы не можете редактировать свои сообщения
    Вы не можете удалять свои сообщения
    Вы не можете голосовать в опросах
    Вы не можете прикреплять файлы к сообщениям
    Вы не можете скачивать файлы