BitTorrentTracker PerecTracker.org
BitTorrentTracker PerecTracker.org
    
Регистрация  ·  Вход
 
 · 
Забыли пароль?

  • Угадай Мелодию. Новогодние выпуски (NEW от 10.01.2015) [2014, Pop, Тв-шоу, Викторина, HDTV 1080i]

    Ответить на тему
     
    Автор Сообщение

    Columb

    Создавать темы 11-Янв-2015 11:26

           

    [Цитировать]

    Угадай Мелодию. Новогодние выпуски (NEW от 10.01.2015)
    Дата/Год выпуска: 2014
    Страна: Россия
    Жанр: Pop, Тв-шоу, Викторина
    Продолжительность: 00:34:00 /выпуск
    Перевод: Не требуется
    Русские субтитры: нет
    Телеканал: Первый канал
    Описание: Специально в Новый год Первый канал подготовил восемь праздничных выпусков любимой зрителями викторины "Угадай мелодию"! В роли музыкальных эрудитов и с самыми искренними поздравлениями выступят ведущие Первого канала Андрей Малахов, Александр Олешко, Роза Сябитова, Петр Толстой и другие, а также звезды российской сцены Валерия, Надежда Бабкина, Юлия Савичева, Дмитрий Дюжев, Игорь Николаев, Ирина Дубцова, Александр Маршал, Наташа Королева, Вячеслав Добрынин, Витас, Олег Газманов, Бурановские бабушки, Владимир Винокур, участники проекта "Голос" - Сергей Волчков, Мариам Мерабова, Дина Гарипова и другие.
    Бессменный ведущий программы – Валдис Пельш.
    Доп. информация: Релиз -

    Рип чистый. Без посторонних надписей. Выкладывается как есть.
    Качество: HDTV 1080i
    Контейнер: TS
    Видео кодек: AVC
    Аудио кодек: MP2, AC3
    Видео: 1920x1080 (16:9) 25.000 fps ~ 13.9 Mbps, 0.267 bit/pixel
    Аудио 1: MPEG Audio 48000Hz stereo 192 Кбит/сек
    Аудио 2: AC3, 6 channels, 48000Hz, 384 Кбит/сек

    Скриншоты


    Скринлист



    MI

    GeneralID : 1 (0x1)Complete name : H:\Угадай Мелодию. Новогодние выпуски - 2015 (2014, Pop, тв-шоу, HDTV 1080i) (MYDIMKA)\Выпуск от 06.01.2014.tsFormat : MPEG-TSFile size : 3.72 GiBDuration : 35mn 5sOverall bit rate mode : VariableOverall bit rate : 15.2 Mbps
    VideoID : 1603 (0x643)Menu ID : 603 (0x25B)Format : AVCFormat/Info : Advanced Video CodecFormat profile : High@L4.0Format settings, CABAC : YesFormat settings, ReFrames : 3 framesCodec ID : 27Duration : 35mn 5sBit rate : 13.9 MbpsWidth : 1 920 pixelsHeight : 1 080 pixelsDisplay aspect ratio : 16:9Frame rate : 25.000 fpsStandard : ComponentColor space : YUVChroma subsampling : 4:2:0Bit depth : 8 bitsScan type : InterlacedScan order : Top Field FirstBits/(Pixel*Frame) : 0.267Stream size : 3.40 GiB (91%)Color primaries : BT.709Transfer characteristics : BT.709Matrix coefficients : BT.709
    Audio #1ID : 2603 (0xA2B)Menu ID : 603 (0x25B)Format : AC-3Format/Info : Audio Coding 3Mode extension : CM (complete main)Format settings, Endianness : BigCodec ID : 6Duration : 35mn 5sBit rate mode : ConstantBit rate : 384 KbpsChannel(s) : 6 channelsChannel positions : Front: L C R, Side: L R, LFESampling rate : 48.0 KHzBit depth : 16 bitsCompression mode : LossyDelay relative to video : -40msStream size : 96.4 MiB (3%)Language : Russian
    Audio #2ID : 2604 (0xA2C)Menu ID : 603 (0x25B)Format : MPEG AudioFormat version : Version 1Format profile : Layer 2Codec ID : 3Duration : 35mn 5sBit rate mode : ConstantBit rate : 192 KbpsChannel(s) : 2 channelsSampling rate : 48.0 KHzCompression mode : LossyDelay relative to video : -40msStream size : 48.2 MiB (1%)Language : Russian
    Скачать .torrent

    Скачать торрент-файл бесплатно и на максимальной скорости!

    Как скачивать? · Что такое торрент? · Рейтинг и ограничения

    !ВНИМАНИЕ!
    Сайт не распространяет и не хранит электронные версии произведений, а занимается лишь лишь предоставлением доступа к создаваемому пользователями каталогу ссылок на торрент-файлы, которые содержат только списки хеш-сумм, убедительная просьба с жалобами обращаться напрямую к пользователю. Файлы для обмена на трекере предоставлены пользователями сайта, и администрация не несёт ответственности за их содержание. Просьба не заливать файлы, защищенные авторскими правами, а также файлы нелегального содержания!

    [Профиль] [ЛС]
    Показать сообщения:    
    Ответить на тему

    Текущее время: Сегодня, в 09:06

    Часовой пояс: GMT + 2



    Вы не можете начинать темы
    Вы не можете отвечать на сообщения
    Вы не можете редактировать свои сообщения
    Вы не можете удалять свои сообщения
    Вы не можете голосовать в опросах
    Вы не можете прикреплять файлы к сообщениям
    Вы не можете скачивать файлы