BitTorrentTracker PerecTracker.org
BitTorrentTracker PerecTracker.org
    
Регистрация  ·  Вход
 
 · 
Забыли пароль?

  • Здесь и сейчас. Январь 2015 года (телеканал "Дождь") [2015, информационная программа, SATRip] 10 выпусков

    Ответить на тему
     
    Автор Сообщение

    Columb

    Создавать темы 11-Янв-2015 11:20

           

    [Цитировать]

    Здесь и сейчас. Январь 2015 года
    Дата/Год выпуска: 2015
    Страна: Россия
    Жанр: информационная программа
    Продолжительность: ~55 мин. каждый выпуск
    Перевод: Не требуется
    Русские субтитры: нетОригинальная аудиодорожка: русский
    Ведущие: Тихон Дзядко, Мария Макеева, Анна Монгайт, Павел Лобков, Михаил Фишман, Антон Желнов, Тимур Олевский
    Телеканал: Дождь
    Описание: Информационные блоки ЗДЕСЬ И СЕЙЧАС — это новости в прямом эфире обо всем, что нам важно и интересно. Живая, открытая, эмоциональная подача информации, думающие ведущие, разбирающиеся в том, о чем они говорят, имеющие свою точку зрения и позицию, работающие без суфлера. Смотрите новости на Дожде каждый будний день с 9 утра. А в 18.00 и в 21:00 обсуждаем итоги дня с гостями в студии.
    Доп. информация: Время в списке выпусков указано московское.
    Сэмпл: https://www.sendspace.com/file/oh08fx
    качество: SATRip
    формат: AVI
    Видео: Xvid 720x400 (16:9) 25.00fps ~1152kbps
    Аудио: MPEG Audio Layer 3 48000Hz mono (1 ch) 128kbps

    Список выпусков/серий

    1. 2 января 2015 года (15:00).
    2. 2 января 2015 года (21:00).
    3. 3 января 2015 года (21:00).
    4. 4 января 2015 года (21:00).
    5. 5 января 2015 года (21:00).
    6. 6 января 2015 года (21:00).
    7. 7 января 2015 года (21:00).
    8. 8 января 2015 года (21:00).
    9. 9 января 2015 года (21:00).
    10. 10 января 2015 года (21:00).

    MediaInfo

    GeneralComplete name : I:\Мои раздачи\Здесь и сейчас\Здесь и сейчас. Январь 2015\Здесь и сейчас (2015-01-02) 21.00.aviFormat : AVIFormat/Info : Audio Video InterleaveFile size : 293 MiBDuration : 31mn 45sOverall bit rate : 1 288 Kbps
    VideoID : 0Format : MPEG-4 VisualFormat profile : Advanced Simple@L5Format settings, BVOP : 2Format settings, QPel : NoFormat settings, GMC : No warppointsFormat settings, Matrix : Default (H.263)Codec ID : XVIDCodec ID/Hint : XviDDuration : 31mn 45sBit rate : 1 150 KbpsWidth : 720 pixelsHeight : 400 pixelsDisplay aspect ratio : 16:9Frame rate : 25.000 fpsColor space : YUVChroma subsampling : 4:2:0Bit depth : 8 bitsScan type : ProgressiveCompression mode : LossyBits/(Pixel*Frame) : 0.160Stream size : 261 MiB (89%)Writing library : XviD 64
    AudioID : 1Format : MPEG AudioFormat version : Version 1Format profile : Layer 3Codec ID : 55Codec ID/Hint : MP3Duration : 31mn 45sBit rate mode : ConstantBit rate : 128 KbpsChannel(s) : 1 channelSampling rate : 48.0 KHzCompression mode : LossyStream size : 29.1 MiB (10%)Alignment : Split accross interleavesInterleave, duration : 40 ms (1.00 video frame)Interleave, preload duration : 500 msWriting library : LAME3.98.2

    Скриншоты

    Скачать .torrent

    Скачать торрент-файл бесплатно и на максимальной скорости!

    Как скачивать? · Что такое торрент? · Рейтинг и ограничения

    !ВНИМАНИЕ!
    Сайт не распространяет и не хранит электронные версии произведений, а занимается лишь лишь предоставлением доступа к создаваемому пользователями каталогу ссылок на торрент-файлы, которые содержат только списки хеш-сумм, убедительная просьба с жалобами обращаться напрямую к пользователю. Файлы для обмена на трекере предоставлены пользователями сайта, и администрация не несёт ответственности за их содержание. Просьба не заливать файлы, защищенные авторскими правами, а также файлы нелегального содержания!

    [Профиль] [ЛС]
    Показать сообщения:    
    Ответить на тему

    Текущее время: Сегодня, в 06:29

    Часовой пояс: GMT + 2



    Вы не можете начинать темы
    Вы не можете отвечать на сообщения
    Вы не можете редактировать свои сообщения
    Вы не можете удалять свои сообщения
    Вы не можете голосовать в опросах
    Вы не можете прикреплять файлы к сообщениям
    Вы не можете скачивать файлы