BitTorrentTracker PerecTracker.org
BitTorrentTracker PerecTracker.org
    
Регистрация  ·  Вход
 
 · 
Забыли пароль?

  • Очень приятно, Бог 2 (Второй сезон) / Kami-sama Hajimemashita II [TV] [1 из 12 эп.] [Без хардсаба] [JAP, RUS(int)] [2015 г., Комедия, романтика, мистика, сёдзё, HDTVRip] [720p]

    Ответить на тему
     
    Автор Сообщение

    Columb

    Создавать темы 09-Янв-2015 23:48

           

    [Цитировать]

    Очень приятно, Бог 2 / Kami-sama Hajimemashita II
    Страна: Япония
    Год выпуска: 2015 г.
    Жанр: Комедия, романтика, мистика, сёдзё
    Тип: TV
    Продолжительность: 25 мин
    Режиссер: Дайти Акитар
    Студия:
    Описание: Юная Нанами Момодзоно одинока и бездомна. Её отец бежит из города, задолжав огромную сумму денег, а кредиторы оставляют Нанами без крыши над головой. Поэтому, когда спасённый ею от собаки мужчина предлагает девушке свой дом, она недолго думая соглашается. Предложенный кров оказывается храмом, и Нанами невольно становится богом Земли.
    Однако приём её ожидает не самый дружественный. Обознавшись, на неё нападает демон-хранитель Томоэ, удручённый 20-ти летним отсутствием хозяина. Но впоследствии он вынужден заключить договор с юной богиней. У Нанами появляются новые обязанности, она и не представляет, какие испытания её ожидают впереди. Всё ещё больше усложняет вспыхнувшая к хранителю любовь. Однажды уже отвергнув её чувства, ответит ли Томоэ взаимностью?
    Качество: HDTVRip
    Тип релиза: Без хардсаба
    Формат видео: MP4
    Релиз/Автор рипа: Leopard-Raws
    Совместимость с бытовыми плеерами: Нет
    Видео: MPEG4 Video (H264) 1280x720 23.976fps 1782kbps
    Аудио: AAC 48000Hz stereo 191kbps Язык Японский
    Аудио 2: AAC 48000Hz stereo 191kbps Язык Русский (в составе контейнера)
    Озвучивание: Двухголосное закадровое - [INFINITY Studio]
    Субтитры: Отсутствуют

    Подробные тех. данные

    GeneralComplete name : C:\Users\Gi_ti-lon\Videos\[Leopard-Raws] Kami-sama Hajimemashita 2 - 01 RAW (TX 1280x720 x264 AAC).mp4Format : MPEG-4Format profile : Base MediaCodec ID : isomFile size : 376 MiBDuration : 24mn 14sOverall bit rate mode : VariableOverall bit rate : 2 170 KbpsEncoded date : UTC 2015-01-09 15:47:06Tagged date : UTC 2015-01-09 15:47:06Writing application : Yamb 2.1.0.0 []http://yamb.unite-video.com]
    VideoID : 2Format : AVCFormat/Info : Advanced Video CodecFormat profile : High@L4.1Format settings, CABAC : YesFormat settings, ReFrames : 4 framesCodec ID : avc1Codec ID/Info : Advanced Video CodingDuration : 24mn 14sBit rate : 1 782 KbpsMaximum bit rate : 9 060 KbpsWidth : 1 280 pixelsHeight : 720 pixelsDisplay aspect ratio : 16:9Frame rate mode : ConstantFrame rate : 23.976 fpsColor space : YUVChroma subsampling : 4:2:0Bit depth : 8 bitsScan type : ProgressiveBits/(Pixel*Frame) : 0.081Stream size : 309 MiB (82%)Title : 264Writing library : x264 core 129 r2245+729M 1a52e03Encoding settings : cabac=1 / ref=4 / deblock=1:1:-1 / analyse=0x3:0x113 / me=umh / subme=9 / psy=1 / fade_compensate=0.00 / psy_rd=1.00:0.00 / mixed_ref=1 / me_range=24 / chroma_me=1 / trellis=2 / 8x8dct=1 / cqm=0 / deadzone=21,11 / fast_pskip=1 / chroma_qp_offset=-2 / threads=8 / lookahead_threads=1 / sliced_threads=0 / nr=0 / decimate=1 / interlaced=0 / bluray_compat=0 / constrained_intra=0 / fgo=0 / bframes=9 / b_pyramid=2 / b_adapt=2 / b_bias=0 / direct=1 / weightb=1 / open_gop=0 / weightp=2 / keyint=240 / keyint_min=24 / scenecut=40 / intra_refresh=0 / rc=crf / mbtree=0 / crf=18.5 / qcomp=0.72 / qpmin=0 / qpmax=69 / qpstep=4 / ip_ratio=1.40 / pb_ratio=1.30 / aq=1:0.85Encoded date : UTC 2015-01-06 12:14:47Tagged date : UTC 2015-01-09 15:48:25Color primaries : BT.709Transfer characteristics : BT.709Matrix coefficients : BT.709
    Audio #1ID : 1Format : AACFormat/Info : Advanced Audio CodecFormat profile : LCCodec ID : 40Duration : 24mn 14sBit rate mode : VariableBit rate : 192 KbpsMaximum bit rate : 259 KbpsChannel(s) : 2 channelsChannel positions : Front: L RSampling rate : 48.0 KHzCompression mode : LossyStream size : 33.2 MiB (9%)Title : RUS - [INFINITY Studio]Language : RussianEncoded date : UTC 2015-01-09 15:43:50Tagged date : UTC 2015-01-09 15:48:25
    Audio #2ID : 3Format : AACFormat/Info : Advanced Audio CodecFormat profile : LCCodec ID : 40Duration : 24mn 14sBit rate mode : VariableBit rate : 192 KbpsMaximum bit rate : 234 KbpsChannel(s) : 2 channelsChannel positions : Front: L RSampling rate : 48.0 KHzCompression mode : LossyStream size : 33.2 MiB (9%)Title : JAP - [Original]Language : JapaneseEncoded date : UTC 2015-01-06 04:26:40Tagged date : UTC 2015-01-09 15:48:25

    Список эпизодов

    1. И снова здравствуйте, я — богиня.

    Отличия

    http://perectracker.org/viewtopic.php?t=4909049 - Наличие русской озвучки

    Скриншоты




    Над проектом работали

    Русские субтитры: sjs + Xellos
    Переводчик/Редактор: Kasandra
    Переводчик/Редактор/Тайм-код: sys3x
    Редактор: Xellos Slayer
    Роли озвучивали: Анна Полевская и Андрей Губанов
    Работа над звуком и Тайминг: Константин Грохольский
    Скачать .torrent

    Скачать торрент-файл бесплатно и на максимальной скорости!

    Как скачивать? · Что такое торрент? · Рейтинг и ограничения

    !ВНИМАНИЕ!
    Сайт не распространяет и не хранит электронные версии произведений, а занимается лишь лишь предоставлением доступа к создаваемому пользователями каталогу ссылок на торрент-файлы, которые содержат только списки хеш-сумм, убедительная просьба с жалобами обращаться напрямую к пользователю. Файлы для обмена на трекере предоставлены пользователями сайта, и администрация не несёт ответственности за их содержание. Просьба не заливать файлы, защищенные авторскими правами, а также файлы нелегального содержания!

    [Профиль] [ЛС]
    Показать сообщения:    
    Ответить на тему

    Текущее время: Сегодня, в 22:08

    Часовой пояс: GMT + 2



    Вы не можете начинать темы
    Вы не можете отвечать на сообщения
    Вы не можете редактировать свои сообщения
    Вы не можете удалять свои сообщения
    Вы не можете голосовать в опросах
    Вы не можете прикреплять файлы к сообщениям
    Вы не можете скачивать файлы