BitTorrentTracker PerecTracker.org
BitTorrentTracker PerecTracker.org
    
Регистрация  ·  Вход
 
 · 
Забыли пароль?

  • (Indie, Psychedelic) [CD] Panda Bear - Panda Bear Meets the Grim Reaper (Japanese Edition) - 2015, FLAC (tracks+.cue), lossless

    Ответить на тему
     
    Автор Сообщение

    Columb

    Создавать темы 09-Янв-2015 14:00

           

    [Цитировать]

    Panda Bear - Panda Bear Meets the Grim Reaper (Japanese Edition)-Жанр: Indie, Psychedelic
    Носитель: CD
    Страна-производитель диска: Japan
    Год издания: 2015
    Издатель (лейбл): Domino
    Страна исполнителя (группы): US
    Аудиокодек: FLAC (*.flac)
    Тип рипа: tracks+.cue
    Битрейт аудио: lossless
    Продолжительность: 01:07:29
    Источник (релизер): wrzmusic
    Наличие сканов в содержимом раздачи: нет
    Треклист

    Disc 1 - Panda Bear Meets the Grim Reaper

    01. Sequential Circuits
    02. Mr Noah
    03. Davy Jones' Locker
    04. Crosswords
    05. Butcher Baker Candlestick Maker
    06. Boys Latin
    07. Come to Your Senses
    08. Tropic of Cancer
    09. Shadow of the Colossus
    10. Lonely Wanderer
    11. Principe Real
    12. Selfish Gene
    13. Acid Wash

    Disc 2 - Mr Noah EP

    01. Mr Noah
    02. Faces in the Crowd
    03. Untying the Knot
    04. This Side of Paradise
    Лог создания рипа

    Disc 1

    X Lossless Decoder version 20141129 (148.1)
    XLD extraction logfile from 2015-01-07 21:31:24 -0800
    Panda Bear / Panda Bear Meets the Grim Reaper
    Used drive : PLEXTOR BDDVDR PX-B310U (revision 1.07)Media type : Pressed CD
    Ripper mode : XLD Secure RipperDisable audio cache : OK for the drive with a cache less than 1375KiBMake use of C2 pointers : NORead offset correction : 6Max retry count : 20Gap status : Analyzed, Appended (except HTOA)
    TOC of the extracted CD Track | Start | Length | Start sector | End sector --------------------------------------------------------- 1 | 00:00:00 | 03:36:45 | 0 | 16244 2 | 03:36:45 | 04:13:49 | 16245 | 35268 3 | 07:50:19 | 00:35:08 | 35269 | 37901 4 | 08:25:27 | 03:36:18 | 37902 | 54119 5 | 12:01:45 | 03:07:51 | 54120 | 68195 6 | 15:09:21 | 04:12:19 | 68196 | 87114 7 | 19:21:40 | 07:23:65 | 87115 | 120404 8 | 26:45:30 | 06:12:50 | 120405 | 148354 9 | 32:58:05 | 00:17:66 | 148355 | 149695 10 | 33:15:71 | 04:19:35 | 149696 | 169155 11 | 37:35:31 | 04:54:21 | 169156 | 191226 12 | 42:29:52 | 05:05:08 | 191227 | 214109 13 | 47:34:60 | 03:43:28 | 214110 | 230862
    AccurateRip Summary Disc not found in AccurateRip DB.
    All Tracks Album gain : -10.61 dB Peak : 1.000000 Statistics Read error : 0 Jitter error (maybe fixed) : 0 Retry sector count : 0 Damaged sector count : 0
    Track 01 Filename : /Volumes/2015 FLAC/Panda Bear - Panda Bear Meets the Grim Reaper (2015) [FLAC]/CD01/01 - Sequential Circuits.flac Pre-gap length : 00:02:00
    Track gain : -9.81 dB Peak : 0.992645 CRC32 hash (test run) : 26DD97BE CRC32 hash : 26DD97BE CRC32 hash (skip zero) : 5E11D329 AccurateRip v1 signature : B5841201 AccurateRip v2 signature : 1BCFD664 ->Track not present in AccurateRip database. Statistics Read error : 0 Jitter error (maybe fixed) : 0 Retry sector count : 0 Damaged sector count : 0
    Track 02 Filename : /Volumes/2015 FLAC/Panda Bear - Panda Bear Meets the Grim Reaper (2015) [FLAC]/CD01/02 - Mr Noah.flac
    Track gain : -10.97 dB Peak : 1.000000 CRC32 hash (test run) : E28AB635 CRC32 hash : E28AB635 CRC32 hash (skip zero) : 4FD1D6C0 AccurateRip v1 signature : 53DAC1C8 AccurateRip v2 signature : 68D43D5A ->Track not present in AccurateRip database. Statistics Read error : 0 Jitter error (maybe fixed) : 0 Retry sector count : 0 Damaged sector count : 0
    Track 03 Filename : /Volumes/2015 FLAC/Panda Bear - Panda Bear Meets the Grim Reaper (2015) [FLAC]/CD01/03 - Davy Jones' Locker.flac
    Track gain : -6.34 dB Peak : 1.000000 CRC32 hash (test run) : 4E20D404 CRC32 hash : 4E20D404 CRC32 hash (skip zero) : FFA882C0 AccurateRip v1 signature : 6AA7DEB6 AccurateRip v2 signature : 63F8C9C7 ->Track not present in AccurateRip database. Statistics Read error : 0 Jitter error (maybe fixed) : 0 Retry sector count : 0 Damaged sector count : 0
    Track 04 Filename : /Volumes/2015 FLAC/Panda Bear - Panda Bear Meets the Grim Reaper (2015) [FLAC]/CD01/04 - Crosswords.flac
    Track gain : -10.81 dB Peak : 1.000000 CRC32 hash (test run) : C2D7E2FA CRC32 hash : C2D7E2FA CRC32 hash (skip zero) : 479FC853 AccurateRip v1 signature : 8E4649CF AccurateRip v2 signature : A85D306D ->Track not present in AccurateRip database. Statistics Read error : 0 Jitter error (maybe fixed) : 0 Retry sector count : 0 Damaged sector count : 0
    Track 05 Filename : /Volumes/2015 FLAC/Panda Bear - Panda Bear Meets the Grim Reaper (2015) [FLAC]/CD01/05 - Butcher Baker Candlestick Maker.flac
    Track gain : -9.88 dB Peak : 1.000000 CRC32 hash (test run) : E1C5A094 CRC32 hash : E1C5A094 CRC32 hash (skip zero) : F8071429 AccurateRip v1 signature : 3EC8A6F8 AccurateRip v2 signature : 9C33A5A3 ->Track not present in AccurateRip database. Statistics Read error : 0 Jitter error (maybe fixed) : 0 Retry sector count : 0 Damaged sector count : 0
    Track 06 Filename : /Volumes/2015 FLAC/Panda Bear - Panda Bear Meets the Grim Reaper (2015) [FLAC]/CD01/06 - Boys Latin.flac
    Track gain : -9.97 dB Peak : 1.000000 CRC32 hash (test run) : 14BA90F4 CRC32 hash : 14BA90F4 CRC32 hash (skip zero) : 33AC66C6 AccurateRip v1 signature : 2325B5BE AccurateRip v2 signature : 9C8AD6BE ->Track not present in AccurateRip database. Statistics Read error : 0 Jitter error (maybe fixed) : 0 Retry sector count : 0 Damaged sector count : 0
    Track 07 Filename : /Volumes/2015 FLAC/Panda Bear - Panda Bear Meets the Grim Reaper (2015) [FLAC]/CD01/07 - Come To Your Senses.flac
    Track gain : -10.86 dB Peak : 1.000000 CRC32 hash (test run) : 37306A9E CRC32 hash : 37306A9E CRC32 hash (skip zero) : 5192C632 AccurateRip v1 signature : E008721B AccurateRip v2 signature : 9CD71C4A ->Track not present in AccurateRip database. Statistics Read error : 0 Jitter error (maybe fixed) : 0 Retry sector count : 0 Damaged sector count : 0
    Track 08 Filename : /Volumes/2015 FLAC/Panda Bear - Panda Bear Meets the Grim Reaper (2015) [FLAC]/CD01/08 - Tropic of Cancer.flac
    Track gain : -7.77 dB Peak : 0.799072 CRC32 hash (test run) : C90AF17D CRC32 hash : C90AF17D CRC32 hash (skip zero) : 8263F6A9 AccurateRip v1 signature : 93B793C8 AccurateRip v2 signature : C30E2F4A ->Track not present in AccurateRip database. Statistics Read error : 0 Jitter error (maybe fixed) : 0 Retry sector count : 0 Damaged sector count : 0
    Track 09 Filename : /Volumes/2015 FLAC/Panda Bear - Panda Bear Meets the Grim Reaper (2015) [FLAC]/CD01/09 - Shadow of the Colossus.flac
    Track gain : 1.23 dB Peak : 0.511871 CRC32 hash (test run) : A563D38E CRC32 hash : A563D38E CRC32 hash (skip zero) : 7C963CDA AccurateRip v1 signature : 783DE785 AccurateRip v2 signature : E3BFDD73 ->Track not present in AccurateRip database. Statistics Read error : 0 Jitter error (maybe fixed) : 0 Retry sector count : 0 Damaged sector count : 0
    Track 10 Filename : /Volumes/2015 FLAC/Panda Bear - Panda Bear Meets the Grim Reaper (2015) [FLAC]/CD01/10 - Lonely Wanderer.flac
    Track gain : -8.79 dB Peak : 1.000000 CRC32 hash (test run) : 411F0937 CRC32 hash : 411F0937 CRC32 hash (skip zero) : EA15D2FA AccurateRip v1 signature : 0DEE6679 AccurateRip v2 signature : FDA6D131 ->Track not present in AccurateRip database. Statistics Read error : 0 Jitter error (maybe fixed) : 0 Retry sector count : 0 Damaged sector count : 0
    Track 11 Filename : /Volumes/2015 FLAC/Panda Bear - Panda Bear Meets the Grim Reaper (2015) [FLAC]/CD01/11 - Príncipe Real.flac
    Track gain : -10.41 dB Peak : 1.000000 CRC32 hash (test run) : FD3AEF4D CRC32 hash : FD3AEF4D CRC32 hash (skip zero) : 683E48DE AccurateRip v1 signature : E5702BE7 AccurateRip v2 signature : C605C3FD ->Track not present in AccurateRip database. Statistics Read error : 0 Jitter error (maybe fixed) : 0 Retry sector count : 0 Damaged sector count : 0
    Track 12 Filename : /Volumes/2015 FLAC/Panda Bear - Panda Bear Meets the Grim Reaper (2015) [FLAC]/CD01/12 - Selfish Gene.flac
    Track gain : -10.37 dB Peak : 1.000000 CRC32 hash (test run) : 60B3A1CC CRC32 hash : 60B3A1CC CRC32 hash (skip zero) : 6AFDFFB5 AccurateRip v1 signature : 60125572 AccurateRip v2 signature : 712347AA ->Track not present in AccurateRip database. Statistics Read error : 0 Jitter error (maybe fixed) : 0 Retry sector count : 0 Damaged sector count : 0
    Track 13 Filename : /Volumes/2015 FLAC/Panda Bear - Panda Bear Meets the Grim Reaper (2015) [FLAC]/CD01/13 - Acid Wash.flac
    Track gain : -12.07 dB Peak : 1.000000 CRC32 hash (test run) : CA7FA351 CRC32 hash : CA7FA351 CRC32 hash (skip zero) : 2BC8AB8C AccurateRip v1 signature : E125A2A7 AccurateRip v2 signature : 40791F48 ->Track not present in AccurateRip database. Statistics Read error : 0 Jitter error (maybe fixed) : 0 Retry sector count : 0 Damaged sector count : 0
    No errors occurred
    End of status report
    -----BEGIN XLD SIGNATURE-----QTM8PvEwgX6irxZwdx1C60qLhDMaTqXVEdU2I8unUFoXPoEcB4FlL_7WJWCbS3tukk38ZDwYLHiokTied_l57ggreFxDfmytT0d2qmK-----END XLD SIGNATURE-----

    Disc 2

    X Lossless Decoder version 20141129 (148.1)
    XLD extraction logfile from 2015-01-07 21:24:03 -0800
    Panda Bear / Panda Bear Meets the Grim Reaper
    Used drive : PLEXTOR BDDVDR PX-B310U (revision 1.07)Media type : Pressed CD
    Ripper mode : XLD Secure RipperDisable audio cache : OK for the drive with a cache less than 1375KiBMake use of C2 pointers : NORead offset correction : 6Max retry count : 20Gap status : Analyzed, Appended (except HTOA)
    TOC of the extracted CD Track | Start | Length | Start sector | End sector --------------------------------------------------------- 1 | 00:00:00 | 04:14:11 | 0 | 19060 2 | 04:14:11 | 04:08:42 | 19061 | 37702 3 | 08:22:53 | 03:10:43 | 37703 | 51995 4 | 11:33:21 | 04:36:64 | 51996 | 72759
    AccurateRip Summary Disc not found in AccurateRip DB.
    All Tracks Album gain : -11.46 dB Peak : 1.000000 Statistics Read error : 0 Jitter error (maybe fixed) : 0 Retry sector count : 0 Damaged sector count : 0
    Track 01 Filename : /Volumes/2015 FLAC/Panda Bear - Panda Bear Meets the Grim Reaper (2015) [FLAC]/CD02/01 - Mr Noah.flac Pre-gap length : 00:02:00
    Track gain : -10.99 dB Peak : 1.000000 CRC32 hash (test run) : E222236B CRC32 hash : E222236B CRC32 hash (skip zero) : 5DD4229A AccurateRip v1 signature : 44FD160B AccurateRip v2 signature : B1716226 ->Track not present in AccurateRip database. Statistics Read error : 0 Jitter error (maybe fixed) : 0 Retry sector count : 0 Damaged sector count : 0
    Track 02 Filename : /Volumes/2015 FLAC/Panda Bear - Panda Bear Meets the Grim Reaper (2015) [FLAC]/CD02/02 - Faces In The Crowd.flac
    Track gain : -11.45 dB Peak : 1.000000 CRC32 hash (test run) : 11C0FB3A CRC32 hash : 11C0FB3A CRC32 hash (skip zero) : E1D2C097 AccurateRip v1 signature : CFE3592A AccurateRip v2 signature : 45ABDFBC ->Track not present in AccurateRip database. Statistics Read error : 0 Jitter error (maybe fixed) : 0 Retry sector count : 0 Damaged sector count : 0
    Track 03 Filename : /Volumes/2015 FLAC/Panda Bear - Panda Bear Meets the Grim Reaper (2015) [FLAC]/CD02/03 - Untying The Knot.flac Pre-gap length : 00:03:55
    Track gain : -11.93 dB Peak : 1.000000 CRC32 hash (test run) : A2B1A8A1 CRC32 hash : A2B1A8A1 CRC32 hash (skip zero) : 44D67FE9 AccurateRip v1 signature : EEC3340D AccurateRip v2 signature : E109DA51 ->Track not present in AccurateRip database. Statistics Read error : 0 Jitter error (maybe fixed) : 0 Retry sector count : 0 Damaged sector count : 0
    Track 04 Filename : /Volumes/2015 FLAC/Panda Bear - Panda Bear Meets the Grim Reaper (2015) [FLAC]/CD02/04 - This Side Of Paradise.flac
    Track gain : -11.32 dB Peak : 1.000000 CRC32 hash (test run) : 5E875603 CRC32 hash : 5E875603 CRC32 hash (skip zero) : 51850B4B AccurateRip v1 signature : 30D1EC23 AccurateRip v2 signature : DB916883 ->Track not present in AccurateRip database. Statistics Read error : 0 Jitter error (maybe fixed) : 0 Retry sector count : 0 Damaged sector count : 0
    No errors occurred
    End of status report
    -----BEGIN XLD SIGNATURE-----ebLDn9zYYKce2GOKsl2ft7xw0nHUFp5VEt5lrNopi.B60hwh.AGMTKUePjsMp.c64iz.geqakHBt88ZIZr6mUDxfBJXPrjHzBG9PzJS-----END XLD SIGNATURE-----
    Содержание индексной карты (.CUE)

    Disc 1

    TITLE "Panda Bear Meets the Grim Reaper"PERFORMER "Panda Bear"REM GENRE "Pop"REM DATE "2015"REM DISCNUMBER 1REM TOTALDISCS 2REM DISCID B40C060DREM REPLAYGAIN_ALBUM_GAIN -10.61 dBREM REPLAYGAIN_ALBUM_PEAK 1.000000FILE "01 - Sequential Circuits.flac" WAVE TRACK 01 AUDIO TITLE "Sequential Circuits" ISRC GBCEL1400453 REM REPLAYGAIN_TRACK_GAIN -9.81 dB REM REPLAYGAIN_TRACK_PEAK 0.992645 INDEX 01 00:00:00FILE "02 - Mr Noah.flac" WAVE TRACK 02 AUDIO TITLE "Mr Noah" ISRC GBCEL1400454 REM REPLAYGAIN_TRACK_GAIN -10.97 dB REM REPLAYGAIN_TRACK_PEAK 1.000000 INDEX 01 00:00:00FILE "03 - Davy Jones' Locker.flac" WAVE TRACK 03 AUDIO TITLE "Davy Jones' Locker" ISRC GBCEL1400455 REM REPLAYGAIN_TRACK_GAIN -6.34 dB REM REPLAYGAIN_TRACK_PEAK 1.000000 INDEX 01 00:00:00FILE "04 - Crosswords.flac" WAVE TRACK 04 AUDIO TITLE "Crosswords" ISRC GBCEL1400456 REM REPLAYGAIN_TRACK_GAIN -10.81 dB REM REPLAYGAIN_TRACK_PEAK 1.000000 INDEX 01 00:00:00FILE "05 - Butcher Baker Candlestick Maker.flac" WAVE TRACK 05 AUDIO TITLE "Butcher Baker Candlestick Maker" ISRC GBCEL1400457 REM REPLAYGAIN_TRACK_GAIN -9.88 dB REM REPLAYGAIN_TRACK_PEAK 1.000000 INDEX 01 00:00:00FILE "06 - Boys Latin.flac" WAVE TRACK 06 AUDIO TITLE "Boys Latin" ISRC GBCEL1400458 REM REPLAYGAIN_TRACK_GAIN -9.97 dB REM REPLAYGAIN_TRACK_PEAK 1.000000 INDEX 01 00:00:00FILE "07 - Come To Your Senses.flac" WAVE TRACK 07 AUDIO TITLE "Come To Your Senses" ISRC GBCEL1400459 REM REPLAYGAIN_TRACK_GAIN -10.86 dB REM REPLAYGAIN_TRACK_PEAK 1.000000 INDEX 01 00:00:00FILE "08 - Tropic of Cancer.flac" WAVE TRACK 08 AUDIO TITLE "Tropic of Cancer" ISRC GBCEL1400460 REM REPLAYGAIN_TRACK_GAIN -7.77 dB REM REPLAYGAIN_TRACK_PEAK 0.799072 INDEX 01 00:00:00FILE "09 - Shadow of the Colossus.flac" WAVE TRACK 09 AUDIO TITLE "Shadow of the Colossus" ISRC GBCEL1400461 REM REPLAYGAIN_TRACK_GAIN 1.23 dB REM REPLAYGAIN_TRACK_PEAK 0.511871 INDEX 01 00:00:00FILE "10 - Lonely Wanderer.flac" WAVE TRACK 10 AUDIO TITLE "Lonely Wanderer" ISRC GBCEL1400462 REM REPLAYGAIN_TRACK_GAIN -8.79 dB REM REPLAYGAIN_TRACK_PEAK 1.000000 INDEX 01 00:00:00FILE "11 - Príncipe Real.flac" WAVE TRACK 11 AUDIO TITLE "Príncipe Real" ISRC GBCEL1400463 REM REPLAYGAIN_TRACK_GAIN -10.41 dB REM REPLAYGAIN_TRACK_PEAK 1.000000 INDEX 01 00:00:00FILE "12 - Selfish Gene.flac" WAVE TRACK 12 AUDIO TITLE "Selfish Gene" ISRC GBCEL1400464 REM REPLAYGAIN_TRACK_GAIN -10.37 dB REM REPLAYGAIN_TRACK_PEAK 1.000000 INDEX 01 00:00:00FILE "13 - Acid Wash.flac" WAVE TRACK 13 AUDIO TITLE "Acid Wash" ISRC GBCEL1400465 REM REPLAYGAIN_TRACK_GAIN -12.07 dB REM REPLAYGAIN_TRACK_PEAK 1.000000 INDEX 01 00:00:00

    Disc 2

    TITLE "Panda Bear Meets the Grim Reaper"PERFORMER "Panda Bear"REM GENRE "Pop"REM DATE "2015"REM DISCNUMBER 2REM TOTALDISCS 2REM DISCID 2C03CA04REM REPLAYGAIN_ALBUM_GAIN -11.46 dBREM REPLAYGAIN_ALBUM_PEAK 1.000000FILE "01 - Mr Noah.flac" WAVE TRACK 01 AUDIO TITLE "Mr Noah" ISRC GBCEL1400454 REM REPLAYGAIN_TRACK_GAIN -10.99 dB REM REPLAYGAIN_TRACK_PEAK 1.000000 INDEX 01 00:00:00FILE "02 - Faces In The Crowd.flac" WAVE TRACK 02 AUDIO TITLE "Faces In The Crowd" ISRC GBCEL1400466 REM REPLAYGAIN_TRACK_GAIN -11.45 dB REM REPLAYGAIN_TRACK_PEAK 1.000000 INDEX 01 00:00:00 TRACK 03 AUDIO TITLE "Untying The Knot" ISRC GBCEL1400467 REM REPLAYGAIN_TRACK_GAIN -11.93 dB REM REPLAYGAIN_TRACK_PEAK 1.000000 INDEX 00 04:04:62FILE "03 - Untying The Knot.flac" WAVE INDEX 01 00:00:00FILE "04 - This Side Of Paradise.flac" WAVE TRACK 04 AUDIO TITLE "This Side Of Paradise" ISRC GBCEL1400468 REM REPLAYGAIN_TRACK_GAIN -11.32 dB REM REPLAYGAIN_TRACK_PEAK 1.000000 INDEX 01 00:00:00
    Лог проверки качества

    Disc 1

    AUDIOCHECKER v2.0 beta (build 457) - by Dester - opdester@freemail.hu~~~~~~~~~~~~~~~~~~~~~~~~~~~~~~~~~~-=== DO NOT EDIT THIS FILE! ===-
    Path: ...\CD01 - Album
    01 -=- 01 - Sequential Circuits.flac -=- CDDA (100%)02 -=- 02 - Mr Noah.flac -=- CDDA (99%)03 -=- 03 - Davy Jones' Locker.flac -=- CDDA (99%)04 -=- 04 - Crosswords.flac -=- CDDA (100%)05 -=- 05 - Butcher Baker Candlestick Maker.flac -=- CDDA (100%)06 -=- 06 - Boys Latin.flac -=- CDDA (100%)07 -=- 07 - Come To Your Senses.flac -=- CDDA (100%)08 -=- 08 - Tropic of Cancer.flac -=- CDDA (100%)09 -=- 09 - Shadow of the Colossus.flac -=- CDDA (100%)10 -=- 10 - Lonely Wanderer.flac -=- CDDA (100%)11 -=- 11 - Principe Real.flac -=- CDDA (100%)12 -=- 12 - Selfish Gene.flac -=- CDDA (100%)13 -=- 13 - Acid Wash.flac -=- CDDA (100%)
    Summary 99,85% CDDA
    81654500

    Disc 2

    AUDIOCHECKER v2.0 beta (build 457) - by Dester - opdester@freemail.hu~~~~~~~~~~~~~~~~~~~~~~~~~~~~~~~~~~-=== DO NOT EDIT THIS FILE! ===-
    Path: ...\CD02 - Mr Noah EP
    1 -=- 01 - Mr Noah.flac -=- CDDA (100%)2 -=- 02 - Faces In The Crowd.flac -=- CDDA (100%)3 -=- 03 - Untying The Knot.flac -=- CDDA (100%)4 -=- 04 - This Side Of Paradise.flac -=- CDDA (100%)
    Summary 100,00% CDDA
    29169300
    Скачать .torrent

    Скачать торрент-файл бесплатно и на максимальной скорости!

    Как скачивать? · Что такое торрент? · Рейтинг и ограничения

    !ВНИМАНИЕ!
    Сайт не распространяет и не хранит электронные версии произведений, а занимается лишь лишь предоставлением доступа к создаваемому пользователями каталогу ссылок на торрент-файлы, которые содержат только списки хеш-сумм, убедительная просьба с жалобами обращаться напрямую к пользователю. Файлы для обмена на трекере предоставлены пользователями сайта, и администрация не несёт ответственности за их содержание. Просьба не заливать файлы, защищенные авторскими правами, а также файлы нелегального содержания!

    [Профиль] [ЛС]
    Показать сообщения:    
    Ответить на тему

    Текущее время: Сегодня, в 10:58

    Часовой пояс: GMT + 2



    Вы не можете начинать темы
    Вы не можете отвечать на сообщения
    Вы не можете редактировать свои сообщения
    Вы не можете удалять свои сообщения
    Вы не можете голосовать в опросах
    Вы не можете прикреплять файлы к сообщениям
    Вы не можете скачивать файлы