Register  ·  Log in
Forgot password?

  • [TR24][OF] The Who - It’s Hard - 1982/2015 (Rock, British Rock)

    Reply to topic
    Author Message


    Post 09-Jan-2015 14:50



    The Who
    It’s Hard
    -Год издания/переиздания диска: 1982/2015
    Жанр: Rock, British Rock
    Издатель (лейбл): Geffen Records
    Продолжительность: 01:09:46
    Наличие сканов: Sleeve--
    01. Athena (3:48)
    02. It's Your Turn (3:41)
    03. Cooks Country (3:50)
    04. It's Hard (3:46)
    05. Dangerous (3:20)
    06. Eminence Front (5:40)
    07. I've Known No War (5:59)
    08. One Life's Enough (2:21)
    09. One At A Time (3:03)
    10. Why Did I Fall For That (3:25)
    11. A Man Is A Man (3:56)
    12. Cry If You Want (4:44)
    13. It's Hard (Live) (5:29)
    14. Eminence Front (Live) (5:55)
    15. Dangerous (Live) (3:41)
    16. Cry If You Want (Live) (7:05)-The Who:
    Roger Daltrey – lead vocals, rhythm guitar
    Pete Townshend – guitars, backing vocals, lead vocals on "Eminence Front", co-lead vocals on "Athena" and "Cooks County", piano and synthesiser on "One Life's Enough"
    John Entwistle – bass guitar, brass, backing vocals, lead vocals on "One at a Time", synthesiser on "Dangerous" and "One at a Time"
    Kenney Jones – drums
    Additional musicians:
    Andy Fairweather-Low – rhythm guitar on "It's Your Turn"
    Tim Gorman – synthesiser and organ on "Dangerous", electric piano on "Eminence Front", synthesiser on "One Life's Enough" and "One at a Time"-Контейнер: FLAC (*.flac)
    Тип рипа: tracks
    Разрядность: 24bit / 96kHz
    Количество каналов: 2.0-О релизе

    Fading end
    The tenth studio album from British institutions The Who is their second release with Small Faces drummer Kenney Jones who wielded the sticks after Keith Moon died in 1978.
    It's Hard could so easily have been critically mauled, but it actually won rave reviews and this remixed version proves why.
    The Who's second release following the death of Keith Moon retains the lyrical and musical strength the boys have become known for.
    Although it's easy to dismiss releases following the death of a founding member, with 1981's Face Dances and this follow-up, it is clear the band are as hungry as ever.
    Pete Townshend said himself he had developed as a musician, 'I'm starting to play better now and so I should because I've been playing a long time!'
    The experimental theatrical pop of tracks like 'Athena' and 'Eminence Front' prompt renewed appeal while the Entwistle penned 'It's Your Turn' sees the band at their most Who-like.
    Recorded on June 1982 at Turn Up-Down Studio at Glyn Johns' home in Surrey, England, UK
    Engineered by Glyn Johns
    Produced by Glyn Johns
    Digitally remastered

    Динамический диапазон

    foobar2000 1.2.2 / Dynamic Range Meter 1.1.1log date: 2015-01-09 10:09:49
    --------------------------------------------------------------------------------Analyzed: The Who / It's Hard--------------------------------------------------------------------------------
    DR Peak RMS Duration Track--------------------------------------------------------------------------------DR11 0.00 dB -13.15 dB 3:48 ?-AthenaDR11 0.00 dB -11.82 dB 3:41 ?-It's Your TurnDR11 0.00 dB -13.24 dB 3:50 ?-Cooks CountryDR11 0.00 dB -13.02 dB 3:46 ?-It's HardDR12 0.00 dB -13.45 dB 3:20 ?-DangerousDR13 0.00 dB -14.41 dB 5:40 ?-Eminence FrontDR11 -0.35 dB -14.21 dB 5:59 ?-I've Known No WarDR11 -0.59 dB -16.70 dB 2:21 ?-One Life's EnoughDR11 -0.36 dB -12.66 dB 3:03 ?-One At A TimeDR11 -0.40 dB -13.25 dB 3:25 ?-Why Did I Fall For ThatDR12 -0.48 dB -14.80 dB 3:56 ?-A Man Is A ManDR11 -0.40 dB -13.48 dB 4:44 ?-Cry If You WantDR10 0.00 dB -11.61 dB 5:29 ?-It's Hard (Live)DR11 0.00 dB -13.06 dB 5:55 ?-Eminence Front (Live)DR11 0.00 dB -12.06 dB 3:41 ?-Dangerous (Live)DR11 0.00 dB -12.95 dB 7:05 ?-Cry If You Want (Live)--------------------------------------------------------------------------------
    Number of tracks: 16Official DR value: DR11
    Samplerate: 96000 HzChannels: 2Bits per sample: 24Bitrate: 2857 kbpsCodec: FLAC================================================================================

    Скриншот спектра частот

    Доп. информация

    При скачивании, если необходимо, переименуйте папку, в которой будет находиться альбомБольшая просьба к скачавшим поддерживать раздачу! Помогайте другим, ведь вам тоже может понадобиться помощь!Не забываем говорить "Спасибо"!Комментарии приветствуются!
    Download .torrent

    Download free and at maximum speed!

    How to Download? · What is a torrent? · Ratings and Limitations

    The site does not extend and does not store electronic(digital) versions of products, and only gives access to a reference catalogue created by users on torrent-files which contain only lists of the hash-sums, the earnest entreaty, with complaints(abuse) to access directly to the user. Files for an exchange on tracker are given by users of a site, and the administration does not bear the responsibility for their maintenance. The request to not fill in the files protected by copyrights, and also files of the illegal maintenance!

    [Profile] [PM]
    Display posts from previous:    
    Reply to topic

    The time now is: Today 16:31

    All times are GMT + 3 Hours

    You cannot post new topics in this forum
    You cannot reply to topics in this forum
    You cannot edit your posts in this forum
    You cannot delete your posts in this forum
    You cannot vote in polls in this forum
    You cannot attach files in this forum
    You cannot download files in this forum