Register  ·  Log in
Forgot password?

  • Лара Фабиан. Мадемуазель Живаго (эфир 2015.01.08) (Алан Бадоев) [2012, Pop, Ballad, Vocal, HDTV 1080i]

    Reply to topic
    Author Message


    Post 09-Jan-2015 12:20



    Лара Фабиан. Мадемуазель Живаго (эфир 2015.01.08)
    Жанр: Pop, Ballad, Vocal
    Продолжительность: 00:52:44
    Год выпуска: 2012
    Режиссер: Алан Бадоев
    Продюсер: Игорь Крутой
    В ролях: Лара Фабиан, Алан Бадоев, Макс Барских, Игорь Крутой, Артём Музыченко, Яна Ляхович
    Описание: Основа этого необычного проекта – песни, написанные Ларой Фабиан на музыку Игоря Крутого на английском, французском, испанском и итальянском языках. В фильме – связанные между собой киноновеллы, действие которых происходит в XIX веке и во времена Второй мировой войны, в наше время и в далеком будущем.
    Лара Фабиан исполнила в фильме главную роль.
    Съемки прошли на Украине, в Египте, Франции и других странах.
    В фильме принимает участие знаменитый испанский балет "Compania Suite Espanola".
    Качество: HDTV 1080i
    Контейнер: TS
    Видео кодек: H.264
    Аудио кодек: MP2
    Видео: H264; 1920x1080 (16:9); 25.000 fps; ~7 808 Kbps
    Аудио: MPEG Audio 48000Hz stereo 192 Кбит/сек

    Отчёт MediaInfo / BDInfo

    GeneralID : 1 (0x1)Complete name : Q:\2014-2015 НОВОГОДНИЕ\Лара Фабиан. Мадемуазель Живаго 2015.01.08.tsFormat : MPEG-TSFile size : 2.88 GiBDuration : 52mn 44sOverall bit rate mode : VariableOverall bit rate : 7 825 Kbps
    VideoID : 2292 (0x8F4)Menu ID : 1 (0x1)Format : AVCFormat/Info : Advanced Video CodecFormat profile : High@L4.0Format settings, CABAC : YesFormat settings, ReFrames : 4 framesCodec ID : 27Duration : 52mn 44sBit rate : 7 245 KbpsWidth : 1 920 pixelsHeight : 1 080 pixelsDisplay aspect ratio : 16:9Frame rate : 25.000 fpsColor space : YUVChroma subsampling : 4:2:0Bit depth : 8 bitsScan type : MBAFFBits/(Pixel*Frame) : 0.140Stream size : 2.67 GiB (93%)
    AudioID : 2295 (0x8F7)Menu ID : 1 (0x1)Format : MPEG AudioFormat version : Version 1Format profile : Layer 2Codec ID : 3Duration : 52mn 44sBit rate mode : ConstantBit rate : 192 KbpsChannel(s) : 2 channelsSampling rate : 48.0 KHzCompression mode : LossyStream size : 72.4 MiB (2%)Language : English


    Lara Fabian. Mademoiselle Zhivago

    Download .torrent

    Download free and at maximum speed!

    How to Download? · What is a torrent? · Ratings and Limitations

    The site does not extend and does not store electronic(digital) versions of products, and only gives access to a reference catalogue created by users on torrent-files which contain only lists of the hash-sums, the earnest entreaty, with complaints(abuse) to access directly to the user. Files for an exchange on tracker are given by users of a site, and the administration does not bear the responsibility for their maintenance. The request to not fill in the files protected by copyrights, and also files of the illegal maintenance!

    [Profile] [PM]


    Post 22-May-2016 23:07 (after 1 year 4 months)


    Топик был перенесен из форума Клипы в форум Видео выступлений

    Йохан Палыч

    Как бы ты высоко не летал, не забывай, с кем ты ползал..
    Display posts from previous:    
    Reply to topic

    The time now is: Today 10:53

    All times are GMT + 3 Hours

    You cannot post new topics in this forum
    You cannot reply to topics in this forum
    You cannot edit your posts in this forum
    You cannot delete your posts in this forum
    You cannot vote in polls in this forum
    You cannot attach files in this forum
    You cannot download files in this forum