BitTorrentTracker PerecTracker.org
BitTorrentTracker PerecTracker.org
    
Регистрация  ·  Вход
 
 · 
Забыли пароль?

  • Империя / Empire / Сезон: 1 / Серии: 1 из 12 (Ли Дэниелс) [2015, драма, WEB-DLRip] MVO (Amedia) + Original + Subs (Rus, Eng)

    Ответить на тему
     
    Автор Сообщение

    Columb

    Создавать темы 09-Янв-2015 11:01

           

    [Цитировать]

    --Империя | Empire--Год выпуска: 2015
    Страна: США, 20th Century Fox Television
    Жанр: драма
    Продолжительность: ~ 00:43:00-Перевод: Профессиональный (многоголосый закадровый) | Amedia
    Режиссёр: Ли Дэниелс-В ролях: Терренс Ховард, Тараджи П. Хенсон, Трэй Байерс, Джусси Смоллетт, Габури Сидибе, Кэйтлин Даблдэй, Мэлик Йоба, Таша Смит, Рафаэль Де Ла Фуэнте, Лиззи Ли-Описание: История о главе музыкальной империи, который узнает о том, что он неизлечимо болен и что жить ему осталось всего три года. Он желает, чтобы его империя продолжала жить и после него, и потому решает выбрать наследника. Его трое сыновей и бывшая жена начинают борьбу за «трон».--| Ссылка на предыдущие и альтернативные раздачи-Качество: WEB-DLRip
    Формат: AVI
    Видео: XviD, 720x400 (16:9), 23,976 fps, ~1600 kbps, 0.232 bit/pixel
    Аудио 1: AC3, 48 kHz, 2 ch, 192 kbps - Rus
    Аудио 2: AC3, 48 kHz, 2 ch, 192 kbps - Eng
    Субтитры: Русские (Амедиа), английские-

    Релиз

    рип, работа со звуком, синхронизация субтитров qqss44

    MediaInfo

    Общее
    Полное имя                               : X:\ATorrent\Empire (S01)\Empire.2015.s01e01.XviD.Amedia.[qqss44].avi
    Формат                                   : AVI
    Формат/Информация                        : Audio Video Interleave
    Размер файла                             : 666 Мбайт
    Продолжительность                        : 46 м.
    Общий поток                              : 1998 Кбит/сек
    Программа кодирования                    : VirtualDubMod 1.5.10.3 | www.virtualdub-fr.org || (build 2550/release)
    Библиотека кодирования                   : VirtualDubMod build 2550/release
    Видео
    Идентификатор                            : 0
    Формат                                   : MPEG-4 Visual
    Профиль формата                          : Advanced Simple@L5
    Параметр BVOP формата                    : Да
    Параметр QPel формата                    : Нет
    Параметр GMC формата                     : Без точки перехода
    Параметр матрицы формата                 : Default (MPEG)
    Идентификатор кодека                     : XVID
    Идентификатор кодека/Подсказка           : XviD
    Продолжительность                        : 46 м.
    Битрейт                                  : 1600 Кбит/сек
    Ширина                                   : 720 пикселей
    Высота                                   : 400 пикселей
    Соотношение сторон                       : 16:9
    Частота кадров                           : 23,976 кадра/сек
    Цветовое пространство                    : YUV
    Субдискретизация насыщенности            : 4:2:0
    Битовая глубина                          : 8 бит
    Тип развёртки                            : Прогрессивная
    Метод сжатия                             : С потерями
    Бит/(Пиксели*Кадры)                      : 0.232
    Размер потока                            : 533 Мбайт (80%)
    Библиотека кодирования                   : XviD 73
    Аудио #1
    Идентификатор                            : 1
    Формат                                   : AC-3
    Формат/Информация                        : Audio Coding 3
    Расширение режима                        : CM (complete main)
    Параметр Endianness формата              : Big
    Идентификатор кодека                     : 2000
    Продолжительность                        : 46 м.
    Вид битрейта                             : Постоянный
    Битрейт                                  : 192 Кбит/сек
    Каналы                                   : 2 канала
    Расположение каналов                     : Front: L R
    Частота                                  : 48,0 КГц
    Битовая глубина                          : 16 бит
    Метод сжатия                             : С потерями
    Размер потока                            : 64,0 Мбайт (10%)
    Выравнивание                             : Разделение по промежуткам
    Продолжительность промежутка             : 42  мс. (1,00 видеокадр)
    Время предзагрузки промежутка            : 500  мс.
    Аудио #2
    Идентификатор                            : 2
    Формат                                   : AC-3
    Формат/Информация                        : Audio Coding 3
    Расширение режима                        : CM (complete main)
    Параметр Endianness формата              : Big
    Идентификатор кодека                     : 2000
    Продолжительность                        : 46 м.
    Вид битрейта                             : Постоянный
    Битрейт                                  : 192 Кбит/сек
    Каналы                                   : 2 канала
    Расположение каналов                     : Front: L R
    Частота                                  : 48,0 КГц
    Битовая глубина                          : 16 бит
    Метод сжатия                             : С потерями
    Размер потока                            : 64,0 Мбайт (10%)
    Выравнивание                             : Разделение по промежуткам
    Продолжительность промежутка             : 42  мс. (1,00 видеокадр)
    Время предзагрузки промежутка            : 500  мс.

    Скриншоты

    Раздача ведется путем добавления новых серий

    Когда раздача ведётся путём добавления новых серий, при каждом добавлении создётся новый торрент. Чтобы начать докачку новой серии, пользователям необходимо сделать следующее:
    (1) остановить скачивание,
    (2) удалить старый торрент у себя из клиента (старые серии удалять не надо),
    (3) скачать новый торрент и запустить его у себя в клиенте вместо старого, при этом указать клиенту путь в старую папку, куда и должно происходить скачивание новых серий.
    Ваш клиент при этом должен произвести хеширование (проверку) старой папки (если не производит сам - помогите ему сделать это), и будет докачивать только те серии, которых у вас ещё нет. Старые серии при этом не удаляются, а продолжают раздаваться!
    Eсли вы уже удалили старые серии, то предотвратить повторную закачку старых серий можно, отжав галочку в соответсвующих местах при запуске нового торрента. По возможности, желательно не удалять старые серии как можно дольше, чтобы релизёр не столько продолжал раздавать старые серии, а смог сконцентрироваться на новых.
    -
    Скачать .torrent

    Скачать торрент-файл бесплатно и на максимальной скорости!

    Как скачивать? · Что такое торрент? · Рейтинг и ограничения

    !ВНИМАНИЕ!
    Сайт не распространяет и не хранит электронные версии произведений, а занимается лишь лишь предоставлением доступа к создаваемому пользователями каталогу ссылок на торрент-файлы, которые содержат только списки хеш-сумм, убедительная просьба с жалобами обращаться напрямую к пользователю. Файлы для обмена на трекере предоставлены пользователями сайта, и администрация не несёт ответственности за их содержание. Просьба не заливать файлы, защищенные авторскими правами, а также файлы нелегального содержания!

    [Профиль] [ЛС]
    Показать сообщения:    
    Ответить на тему

    Текущее время: Сегодня, в 00:23

    Часовой пояс: GMT + 2



    Вы не можете начинать темы
    Вы не можете отвечать на сообщения
    Вы не можете редактировать свои сообщения
    Вы не можете удалять свои сообщения
    Вы не можете голосовать в опросах
    Вы не можете прикреплять файлы к сообщениям
    Вы не можете скачивать файлы