BitTorrentTracker PerecTracker.org
BitTorrentTracker PerecTracker.org
    
Регистрация  ·  Вход
 
 · 
Забыли пароль?

  • Shaka Ponk, Owlle, Misteur Valaire, Cascadeur, Cats on Trees, Talisco, Le prince Miiaou - Musique Acoustic Special от 07.01.2015 - TV5MONDE (Филипп Сомме / Philippe Sommet) [2015 г., Pop, Rock, Electronic, Live, DVB]

    Ответить на тему
     
    Автор Сообщение

    Columb

    Создавать темы 09-Янв-2015 10:45

           

    [Цитировать]

    Acoustic Special
    TV5MONDE от 07.01.2015-Страна: Франция
    Жанр: Pop, Rock, Electronic, Live
    Продолжительность: 00:26:32
    Год выпуска: 2014 г.
    Перевод: Субтитры (перевод М.Кузиной, Éclair Group)
    Cубтитры: русские
    Режиссер: Филипп Сомме / Philippe SommetОписание: Музыкальная передача Musique Acoustic канала французского телевидения TV5MONDE представляет преимущественно французских же талантливых молодых исполнителей, чье живое выступление в студии без зрителей может состоять из одной или нескольких песен, иногда передача бывает полностью посвящена одному исполнителю, презентующему новый альбом. Musique Acoustic выходит в эфир раз в 1-2 недели. Ведущим передачи c 2006 года является ее создатель - популярный радио – и телеведущий - Sébastien Folin, получивший известность в 2005 году серией из 20 коротких программ для TF1 "Любовь в 20 лет".
    К Новому году приурочен специальный выпуск передачи с участием молодых музыкантов, наиболее популярных во Франции.
    Треклист:
    01. Shaka Ponk – On the Road
    02. Owlle – Ticky Ticky
    03. Misteur Valaire – Mountains of Illusion (feat. Jamie Lidell)
    04. Cascadeur – Ghost Surfer
    05. Cats on Trees – Sirens Call
    06. Talisco – Follow Me
    07. Le prince Miiaou – Happy Song for Empty People-Дополнительная информация: перевод интервью вшитыми русскими субтитрами.
    Источник: TV5MONDE DVB-S
    Качество: DVB
    Контейнер: MKV
    Видео кодек: MPEG2
    Аудио кодек: MP2
    Видео: MPEG Video 2, 704x576@1024x576 (16:9), 25 fps, ~3469 kbps avg, ~0.342 bit/pixel
    Аудио: 48 kHz, MPEG Audio 2, 2 ch, ~192.00 kbps avg
    Формат субтитров: hardsub (неотключаемые)

    MediaInfo

    ОбщееУникальный идентификатор : 211357972955926236846115145803465248474 (0x9F02109DF271526CA9E817EAC6E44EDA)Полное имя : H:\My Torrents\[apreder]TV5MONDE_Musique_Acoustic\[apreder]TV5MONDE_Musique_Aqoustic_Special(07.01.2015)DVB.mkvФормат : MatroskaВерсия формата : Version 2Размер файла : 709 МбайтПродолжительность : 26 м.Режим общего битрейта : ПеременныйОбщий поток : 3735 Кбит/секДата кодирования : UTC 2015-01-08 16:43:08Программа кодирования : mkvmerge v7.5.0 ('Glass Culture') 64bit built on Jan 4 2015 16:48:44Библиотека кодирования : libebml v1.3.1 + libmatroska v1.4.2
    ВидеоИдентификатор : 1Формат : MPEG VideoВерсия формата : Version 2Профиль формата : Main@MainПараметр BVOP формата : ДаПараметр матрицы формата : ВыборочнаяПараметр GOP формата : M=3, N=15Format_Settings_PictureStructure : FrameИдентификатор кодека : V_MPEG2Идентификатор кодека/Информация : MPEG 1 or 2 VideoПродолжительность : 26 м.Вид битрейта : ПеременныйБитрейт : 3469 Кбит/секШирина : 704 пикселяВысота : 576 пикселейСоотношение сторон : 16:9Режим частоты кадров : ПостоянныйЧастота кадров : 25,000 кадров/секСтандарт вещания : PALЦветовое пространство : YUVСубдискретизация насыщенности : 4:2:0Битовая глубина : 8 битТип развёртки : ЧересстрочнаяПорядок развёртки : Верхнее поле первоеМетод сжатия : С потерямиБит/(Пиксели*Кадры) : 0.342Временной код первого кадра : 00:00:00:00Оригинал временного кода : Group of pictures headerРазмер потока : 659 Мбайт (93%)Default : ДаForced : НетGop_OpenClosed_FirstFrame : Closed
    АудиоИдентификатор : 2Формат : MPEG AudioВерсия формата : Version 1Профиль формата : Layer 2Идентификатор кодека : A_MPEG/L2Идентификатор кодека/Подсказка : MP2Продолжительность : 26 м.Вид битрейта : ПостоянныйБитрейт : 192 Кбит/секКаналы : 2 каналаЧастота : 48,0 КГцМетод сжатия : С потерямиРазмер потока : 36,5 Мбайт (5%)Язык : FrenchDefault : ДаForced : Нет
    Скриншоты

    Резервные скриншоты

    -[2'040]
    Скачать .torrent

    Скачать торрент-файл бесплатно и на максимальной скорости!

    Как скачивать? · Что такое торрент? · Рейтинг и ограничения

    !ВНИМАНИЕ!
    Сайт не распространяет и не хранит электронные версии произведений, а занимается лишь лишь предоставлением доступа к создаваемому пользователями каталогу ссылок на торрент-файлы, которые содержат только списки хеш-сумм, убедительная просьба с жалобами обращаться напрямую к пользователю. Файлы для обмена на трекере предоставлены пользователями сайта, и администрация не несёт ответственности за их содержание. Просьба не заливать файлы, защищенные авторскими правами, а также файлы нелегального содержания!

    [Профиль] [ЛС]
    Показать сообщения:    
    Ответить на тему

    Текущее время: Сегодня, в 18:20

    Часовой пояс: GMT + 2



    Вы не можете начинать темы
    Вы не можете отвечать на сообщения
    Вы не можете редактировать свои сообщения
    Вы не можете удалять свои сообщения
    Вы не можете голосовать в опросах
    Вы не можете прикреплять файлы к сообщениям
    Вы не можете скачивать файлы