BitTorrentTracker PerecTracker.org
BitTorrentTracker PerecTracker.org
    
Регистрация  ·  Вход
 
 · 
Забыли пароль?

  • Galavant / Галавант / Сезон: 1 / Серии: 1-8 из 8 (Крис Кох / Chris Koch) [2015, мюзикл, комедия, HDTV 720p] MVO (GladiolusTV) + Original + Дополнительные Материалы

    Ответить на тему
     
    Автор Сообщение

    Columb

    Создавать темы 08-Янв-2015 21:17

           

    [Цитировать]

    Galavant / Галавант
    Год выпуска: 2015
    Страна: США
    Жанр: мюзикл, комедия
    Продолжительность: ~00:22
    Перевод: Любительский (многоголосый закадровый) GladiolusTV
    Режиссёр: Крис Кох / Chris Koch
    В ролях: Джошуа Зассе (Galavant), Тимоти Омандсон (King Richard), Винни Джонс (Gareth), Мэллори Джэнсен (Madalena), Карен Дэвид (Isabella), Люк Янблад (Sid), Даррен Эванс (Chef), Бен Прэсли (Jester), Стэнли Таунсенд (King of Valencia), Genevieve Allenbury (Queen of Valencia), Кеннет Коллар (Dimwit Squire), Эндрю Эблесон (2014)-Описание: История о принце Галаванте и злом короле Ричарде, который похищает его возлюбленную, после чего герой начинает мстить своему врагу.
    Мировая премьера: 4 января 2015
    -Доп. информация: Озвучено студией GladiolusTV
    Перевод и закадровый текст Wanker и TonMeister, а также огромное спасибо Big Mac за неоценимый вклад в общее дело.
    Обратите внимание на Дополнительные Материалы!
    P.S. В самом фильме большинство песен переведено стихотворными субтитрами (готовыми к употреблению), но в дополнительных материалах вы можете послушать особо полюбившиеся нам композиции на русском языке.-Ссылка на предыдущие и альтернативные раздачи: http://perectracker.org/tracker.php?f=189,2366&nm=Galavant
    Сэмпл: http://multi-up.com/1025237-Качество: HDTV 720p
    Контейнер: MKV
    Видео: AVC, 1280x720 (16:9), 4000 kbps, 23,976 fps, 0,177 bpp
    Аудио: русский / MP3 / 2.0 / 48 kHz / 256 kbps /
    Аудио 2: английский / AC3 / 5.1 / 48 kHz / 384 kbps /
    Субтитры: Русские (srt) Тексты Песен и Надписи

    Дополнительные материалы

    Песни на русском:
    1 серия: Вступительная песня + Финальная песня, Песня Короля

    MediaInfo

    Общее
    Уникальный идентификатор : 166069544067173129503970569896052676126 (0x7CEFD4ADCCAE4ACD529200413504561E)
    Полное имя : /Volumes/4 TB/RuTracker/Galavant.S01.720p.HDTV.GladiolusTV/Galavant.S01E01.720p.HDTV.GladiolusTV.mkv
    Формат : Matroska
    Версия формата : Version 4 / Version 2
    Размер файла : 712 Мбайт
    Продолжительность : 21 м.
    Общий поток : 4655 Кбит/сек
    Дата кодирования : UTC 2015-01-08 03:59:10
    Программа кодирования : mkvmerge v7.4.0 ('Circles') 64bit
    Библиотека кодирования : libebml v1.3.0 + libmatroska v1.4.1
    DURATION : 00:21:04.009000000
    NUMBER_OF_FRAMES : 106
    NUMBER_OF_BYTES : 5511
    _STATISTICS_WRITING_APP : mkvmerge v7.4.0 ('Circles') 64bit
    _STATISTICS_WRITING_DATE_UTC : 2015-01-08 03:59:10
    _STATISTICS_TAGS : BPS DURATION NUMBER_OF_FRAMES NUMBER_OF_BYTES
    Видео
    Идентификатор : 1
    Формат : AVC
    Формат/Информация : Advanced Video Codec
    Профиль формата : High@L4.1
    Параметр CABAC формата : Да
    Параметр ReFrames формата : 5 кадров
    Идентификатор кодека : V_MPEG4/ISO/AVC
    Продолжительность : 21 м.
    Битрейт : 3922 Кбит/сек
    Ширина : 1280 пикселей
    Высота : 720 пикселей
    Соотношение сторон : 16:9
    Режим частоты кадров : Постоянный
    Частота кадров : 23,976 кадра/сек
    Цветовое пространство : YUV
    Субдискретизация насыщенности : 4:2:0
    Битовая глубина : 8 бит
    Тип развёртки : Прогрессивная
    Бит/(Пиксели*Кадры) : 0.177
    Размер потока : 600 Мбайт (84%)
    Библиотека кодирования : x264 core 142 r2491 24e4fed
    Настройки программы : cabac=1 / ref=5 / deblock=1:0:0 / analyse=0x3:0x113 / me=umh / subme=8 / psy=1 / psy_rd=1.00:0.00 / mixed_ref=1 / me_range=16 / chroma_me=1 / trellis=1 / 8x8dct=1 / cqm=0 / deadzone=21,11 / fast_pskip=1 / chroma_qp_offset=-2 / threads=12 / lookahead_threads=2 / sliced_threads=0 / nr=0 / decimate=1 / interlaced=0 / bluray_compat=0 / constrained_intra=0 / bframes=3 / b_pyramid=2 / b_adapt=2 / b_bias=0 / direct=3 / weightb=1 / open_gop=0 / weightp=2 / keyint=250 / keyint_min=23 / scenecut=40 / intra_refresh=0 / rc_lookahead=50 / rc=crf / mbtree=1 / crf=18.0 / qcomp=0.60 / qpmin=0 / qpmax=69 / qpstep=4 / ip_ratio=1.40 / aq=1:1.00
    Язык : English
    Default : Да
    Forced : Нет
    Коэффициенты матрицы : BT.709
    DURATION : 00:21:22.323000000
    NUMBER_OF_FRAMES : 30745
    NUMBER_OF_BYTES : 643205143
    _STATISTICS_WRITING_APP : mkvmerge v7.4.0 ('Circles') 64bit
    _STATISTICS_WRITING_DATE_UTC : 2015-01-08 03:59:10
    _STATISTICS_TAGS : BPS DURATION NUMBER_OF_FRAMES NUMBER_OF_BYTES
    Аудио #1
    Идентификатор : 2
    Формат : MPEG Audio
    Версия формата : Version 1
    Профиль формата : Layer 3
    Режим : Joint stereo
    Расширение режима : MS Stereo
    Идентификатор кодека : A_MPEG/L3
    Идентификатор кодека/Подсказка : MP3
    Продолжительность : 21 м.
    Вид битрейта : Постоянный
    Битрейт : 256 Кбит/сек
    Каналы : 2 канала
    Частота : 48,0 КГц
    Метод сжатия : С потерями
    Размер потока : 39,1 Мбайт (5%)
    Заголовок : GladiolusTV
    Язык : Russian
    Default : Да
    Forced : Нет
    Аудио #2
    Идентификатор : 3
    Формат : AC-3
    Формат/Информация : Audio Coding 3
    Расширение режима : CM (complete main)
    Параметр Endianness формата : Big
    Идентификатор кодека : A_AC3
    Продолжительность : 21 м.
    Вид битрейта : Постоянный
    Битрейт : 384 Кбит/сек
    Каналы : 6 каналов
    Расположение каналов : Front: L C R, Side: L R, LFE
    Частота : 48,0 КГц
    Битовая глубина : 16 бит
    Метод сжатия : С потерями
    Размер потока : 58,7 Мбайт (8%)
    Заголовок : Оригинал
    Язык : English
    Default : Нет
    Forced : Нет
    Текст
    Идентификатор : 4
    Формат : UTF-8
    Идентификатор кодека : S_TEXT/UTF8
    Идентификатор кодека/Информация : UTF-8 Plain Text
    Заголовок : Тексты Песен и Надписи
    Язык : Russian
    Default : Да
    Forced : Нет

    Скриншоты

    Внимание! Раздача ведется путем добавления новых серий!

    Внимание! Раздача ведётся путём добавления новых серий; при каждом добавлении создётся новый торрент. Чтобы начать докачку новой серии, пользователям необходимо сделать следующее:
    (1) остановить скачивание,
    (2) удалить старый торрент у себя из клиента (старые серии удалять не надо),
    (3) скачать новый торрент и запустить его у себя в клиенте вместо старого, при этом указать клиенту путь в старую папку куда и должно происходить скачивание новых серий.
    Ваш клиент при этом должен произвести хеширование (проверку) старой папки (если не производит сам - помогите ему сделать это), и будет докачивать только те серии которых у вас ещё нет. Старые серии при этом не удаляются, а продолжают раздаваться!
    Eсли вы уже удалили старые серии, то предотвратить повторную закачку старых серий можно, отжав галочку в соответсвующих местах при запуске нового торрента. По возможности, желательно не удалять старые серии как можно дольше чтобы релизёр не столько продолжал раздавать старые серии, а смог сконцентрироваться на новых.
    Скачать .torrent

    Скачать торрент-файл бесплатно и на максимальной скорости!

    Как скачивать? · Что такое торрент? · Рейтинг и ограничения

    !ВНИМАНИЕ!
    Сайт не распространяет и не хранит электронные версии произведений, а занимается лишь лишь предоставлением доступа к создаваемому пользователями каталогу ссылок на торрент-файлы, которые содержат только списки хеш-сумм, убедительная просьба с жалобами обращаться напрямую к пользователю. Файлы для обмена на трекере предоставлены пользователями сайта, и администрация не несёт ответственности за их содержание. Просьба не заливать файлы, защищенные авторскими правами, а также файлы нелегального содержания!

    [Профиль] [ЛС]
    Показать сообщения:    
    Ответить на тему

    Текущее время: Сегодня, в 18:21

    Часовой пояс: GMT + 2



    Вы не можете начинать темы
    Вы не можете отвечать на сообщения
    Вы не можете редактировать свои сообщения
    Вы не можете удалять свои сообщения
    Вы не можете голосовать в опросах
    Вы не можете прикреплять файлы к сообщениям
    Вы не можете скачивать файлы