BitTorrentTracker PerecTracker.org
BitTorrentTracker PerecTracker.org
    
Регистрация  ·  Вход
 
 · 
Забыли пароль?

  • #лучшийконцертгода (Лучший концерт года) / #кращийконцертроку (Кращий концерт року) [2015, Jazz, Soul, R'n'B, SATRip]

    Ответить на тему
     
    Автор Сообщение

    Columb

    Создавать темы 08-Янв-2015 13:51

           

    [Цитировать]

    #лучшийконцертгода (Лучший концерт года) / #кращийконцертроку (Кращий концерт року)
    Дата/Год выпуска: 2015
    Страна: Украина
    Жанр: Jazz, Soul, R'n'B
    Продолжительность: 01:41:50+00:18:43
    Перевод: Не требуется
    Русские субтитры: есть
    Оригинальная аудиодорожка: русский, украинский
    Телеканал: ТЕТОписание: Нам надоели «песни года», «голубые огоньки», мюзиклы, «дискотеки 90-х» и другие «концерты под майонезом» в новогоднем эфире. Мы так больше не будем. Jamala, Pianoбой, Alloise, ТНМК, SunSay, The HARDKISS, The Maneken, ONUKA, Bahroma, Sophie Villy, Tape Flakes, Champagne Morning, Morphom, Маша Чайковская и Гуша Катушкин, Dead Boys Girlfriend, US, Руки'в Брюки – lineup нашей новогодней ночи! Это – #лучшийконцертгода на ТЕТ, который мы покажем сразу после полуночи.

    Треклист

    1. Pianoбой - Простые вещи
    2. Champagne Morning - Miracle
    3. Гуша Катушкин и Маша Чайковская - Эхо тысячи вокзалов
    4. SunSay - Wind song
    5. ONUKA - Misto
    6. The Maneken - Magic of the Moment
    7. Pianoбой - Родина
    8. Руки'в Брюки - Мальчик-чик-чик
    9. Morphom - Dancing alone
    10. Jamala - Thank you
    11. SunSay - Мама
    12. ТНМК - Та ти шо
    13. The Hardkiss - Make-up
    14. Sophie Villy - Connected
    15. Us - Last war
    16. Jamala - Заплуталась
    17. Bahroma - Важное не важно
    18. Dead Boys Girlfriend - SOS
    19. Tape Flakes - Стадо белоснежно-диких пум
    20. The Hardkiss - Stones
    21. ONUKA - Look
    22. ТНМК - Дзеркало
    23. Alloise - Love me or leave me
    24. Гуша Катушкин и Маша Чайковская - Чекай
    Сэмпл: https://www.sendspace.com/file/5i1a5c
    качество: SATRip
    формат: AVI
    Видео: Xvid 720x400 (16:9) 25fps ~1536kbps
    Аудио: MP3 48000Hz stereo (2ch) 192kbps

    MediaInfo

    GeneralComplete name : I:\Мои раздачи\#кращийконцертроку\Концерт.aviFormat : AVIFormat/Info : Audio Video InterleaveFile size : 1.24 GiBDuration : 1h 41mnOverall bit rate : 1 737 Kbps
    VideoID : 0Format : MPEG-4 VisualFormat profile : Advanced Simple@L5Format settings, BVOP : YesFormat settings, QPel : NoFormat settings, GMC : No warppointsFormat settings, Matrix : Default (H.263)Codec ID : XVIDCodec ID/Hint : XviDDuration : 1h 41mnBit rate : 1 535 KbpsWidth : 720 pixelsHeight : 400 pixelsDisplay aspect ratio : 16:9Frame rate : 25.000 fpsColor space : YUVChroma subsampling : 4:2:0Bit depth : 8 bitsScan type : ProgressiveCompression mode : LossyBits/(Pixel*Frame) : 0.213Stream size : 1.09 GiB (88%)Writing library : XviD 64
    AudioID : 1Format : MPEG AudioFormat version : Version 1Format profile : Layer 3Mode : Joint stereoMode extension : MS StereoCodec ID : 55Codec ID/Hint : MP3Duration : 1h 41mnBit rate mode : ConstantBit rate : 192 KbpsChannel(s) : 2 channelsSampling rate : 48.0 KHzCompression mode : LossyStream size : 140 MiB (11%)Alignment : Split accross interleavesInterleave, duration : 40 ms (1.00 video frame)Interleave, preload duration : 500 ms

    Скриншоты

    Скачать .torrent

    Скачать торрент-файл бесплатно и на максимальной скорости!

    Как скачивать? · Что такое торрент? · Рейтинг и ограничения

    !ВНИМАНИЕ!
    Сайт не распространяет и не хранит электронные версии произведений, а занимается лишь лишь предоставлением доступа к создаваемому пользователями каталогу ссылок на торрент-файлы, которые содержат только списки хеш-сумм, убедительная просьба с жалобами обращаться напрямую к пользователю. Файлы для обмена на трекере предоставлены пользователями сайта, и администрация не несёт ответственности за их содержание. Просьба не заливать файлы, защищенные авторскими правами, а также файлы нелегального содержания!

    [Профиль] [ЛС]
    Показать сообщения:    
    Ответить на тему

    Текущее время: Сегодня, в 00:03

    Часовой пояс: GMT + 2



    Вы не можете начинать темы
    Вы не можете отвечать на сообщения
    Вы не можете редактировать свои сообщения
    Вы не можете удалять свои сообщения
    Вы не можете голосовать в опросах
    Вы не можете прикреплять файлы к сообщениям
    Вы не можете скачивать файлы