Register  ·  Log in
Forgot password?

  • Рождество Христово. Торжественное Рождественское богослужение в Казанском кафедральном соборе (Санкт-Петербург) [2015, богослужение, DVB]

    Reply to topic
    Author Message


    Post 08-Jan-2015 11:33



    Рождество Христово. Торжественное Рождественское богослужение в Казанском кафедральном соборе (Санкт-Петербург)
    Год выпуска: 2015
    Страна: Россия
    Телеканал: Петербург — Пятый канал
    Дата и время выхода в эфир: 06.01.2015 22:59
    Жанр: богослужение
    Продолжительность: 02:58:25
    Перевод: Не требуется
    Русские субтитры: нет
    Светлый праздник Рождества Христова – один из главных христианских праздников, установленный в честь рождения во плоти Иисуса Христа от Девы Марии. Значение Рождества – это любовь, мир и благоволение. А благоволение несет людям всепрощение, желание добра всем и каждому, полное самозабвение и любовь, объемлющую всё человечество.
    Качество: DVB
    Формат: MKV
    Видео: AVC, 720x576 (4:3), 2 344 Kbps, 25 fps
    Аудио: MP2, 48.0 KHz, 192 Kbps, CBR, 2 ch


    GeneralUnique ID : 239048619644913975003274438157838898213 (0xB3D716E7C23BAAB5A22F44AE5958D425)Complete name : D:\2015-01-06 Рождество Христово. Прямая трансляция из Казанского Кафедрального собора (Пятый канал).mkvFormat : MatroskaFormat version : Version 4 / Version 2File size : 3.23 GiBDuration : 2h 58mnOverall bit rate : 2 588 KbpsEncoded date : UTC 2015-01-07 19:53:42Writing application : mkvmerge v7.5.0 ('Glass Culture') 64bit built on Jan 4 2015 16:48:44Writing library : libebml v1.3.1 + libmatroska v1.4.2DURATION : 02:58:25.320000000NUMBER_OF_FRAMES : 446055NUMBER_OF_BYTES : 256927680_STATISTICS_WRITING_APP : mkvmerge v7.5.0 ('Glass Culture') 64bit built on Jan 4 2015 16:48:44_STATISTICS_WRITING_DATE_UTC : 2015-01-07 19:53:42_STATISTICS_TAGS : BPS DURATION NUMBER_OF_FRAMES NUMBER_OF_BYTES
    VideoID : 1Format : AVCFormat/Info : Advanced Video CodecFormat profile : High@L3.0Format settings, CABAC : YesFormat settings, ReFrames : 4 framesFormat settings, GOP : M=4, N=24Codec ID : V_MPEG4/ISO/AVCDuration : 2h 58mnBit rate : 2 344 KbpsWidth : 720 pixelsHeight : 576 pixelsDisplay aspect ratio : 4:3Original display aspect ratio : 4:3Frame rate mode : ConstantFrame rate : 25.000 fpsStandard : ComponentColor space : YUVChroma subsampling : 4:2:0Bit depth : 8 bitsScan type : InterlacedScan order : Top Field FirstBits/(Pixel*Frame) : 0.226Stream size : 2.92 GiB (91%)Default : YesForced : NoColor primaries : BT.601 PALTransfer characteristics : BT.470 System B, BT.470 System GMatrix coefficients : BT.601
    AudioID : 2Format : MPEG AudioFormat version : Version 1Format profile : Layer 2Codec ID : A_MPEG/L2Codec ID/Hint : MP2Duration : 2h 58mnBit rate mode : ConstantBit rate : 192 KbpsChannel(s) : 2 channelsSampling rate : 48.0 KHzCompression mode : LossyStream size : 245 MiB (7%)Language : RussianDefault : YesForced : No


    Download .torrent

    Download free and at maximum speed!

    How to Download? · What is a torrent? · Ratings and Limitations

    The site does not extend and does not store electronic(digital) versions of products, and only gives access to a reference catalogue created by users on torrent-files which contain only lists of the hash-sums, the earnest entreaty, with complaints(abuse) to access directly to the user. Files for an exchange on tracker are given by users of a site, and the administration does not bear the responsibility for their maintenance. The request to not fill in the files protected by copyrights, and also files of the illegal maintenance!

    [Profile] [PM]
    Display posts from previous:    
    Reply to topic

    The time now is: Today 18:03

    All times are GMT + 3 Hours

    You cannot post new topics in this forum
    You cannot reply to topics in this forum
    You cannot edit your posts in this forum
    You cannot delete your posts in this forum
    You cannot vote in polls in this forum
    You cannot attach files in this forum
    You cannot download files in this forum