BitTorrentTracker PerecTracker.org
BitTorrentTracker PerecTracker.org
    
Регистрация  ·  Вход
 
 · 
Забыли пароль?

  • Роза Хутор. Рождество 2015 [2015, Pop, HDTV 1080i]

    Ответить на тему
     
    Автор Сообщение

    Columb

    Создавать темы 08-Янв-2015 10:22

           

    [Цитировать]

    Роза Хутор. Рождество 2015
    Жанр: Pop
    Продолжительность: 01:48:00
    Год выпуска: 2015
    Описание: «Роза Хутор» - музыкальный фестиваль, на котором выступят самые популярные отечественные исполнители, а также самые яркие участники проекта «Голос» и исполнят песни, любимые десятками миллионов слушателей!
    7 января в концерте Роза Хутор рождество 7 01 2015 будут принимать участие все звезды отечественной песенной сцены, а также конкурсанты телепроекта Голос. Концерт, организованный Григорием Лепсом, состоится в Сочи в селе Роза Хутор. Гала-концерт в прямом эфире будет транслировать Первый канал, в нем выступят Григорий Лепс, Валерий Меладзе, Стас Михайлов, Ирина Аллегрова, Юлия Паршута, Кристина Орбакайте, Ани Лорак, Иосиф Кобзон, Светлана Лобода, Emin, Маша Распутина, Нюша, Шариф, Сергей Лазарев, Нико Неман, Стас Пьеха, Никита Пресняков, Тимати и другие
    01. Григорий Лепс, С.Михайлов, К.Орбакайте, С.Лобода, А.Лорак,
    С.Пьеха, Emin и Ш. Умханов - Самый лучший день
    02. Григорий Лепс и Валерий Меладзе - Обернитесь
    03. Валерий Меладзе - Ночь накануне Рождества
    04. Иосиф Кобзон - Идут белые снеги
    05. Кристина Орбакайте - Как в кино премьера песни
    06. Нюша - Цунами
    07. Григорий Лепс и Стас Пьеха - Она не твоя
    08. Юлия Паршута - В тишине громких слов (песня roxette)
    09. Никита Пресняков и гр. Multiverse - Белый снег
    10. Emin - Я лучше всех живу
    11. Светлана Лобода - 40 градусов
    12. Шариф Умханов - Голос
    13. Мария Воронова - Иван, Борис и я
    14. Сергей Лазарев - 7 Цифр
    15. Ани Лорак - Медленно
    16. Григорий Лепс и Ани Лорак - Зеркала
    17. Стас Михайлов Под прицелом (С тобой я на край земли)
    18. Григорий Лепс и Стас Михайлов - Всё для тебя
    19. Ирина Аллегрова - Новогодняя
    20. Григорий Лепс и Ирина Аллегрова - Я Тебе Не Верю
    21. Кристина Орбакайте - Крылья
    22. Григорий Лепс и Тимати - Я уеду жить в Лондон
    23. Григорий Лепс - Опять метель
    24. Григорий Лепс и все - Я Счастливый как никто
    Качество: HDTV 1080i
    Контейнер: TS
    Видео кодек: H.264
    Аудио кодек: MP2
    Видео: H264; 1920x1080 (16:9); 25.000 fps; ~15.7 Mbps
    Аудио: MPEG Audio 48000Hz stereo 192 Кбит/сек

    Отчёт MediaInfo / BDInfo

    GeneralID : 1 (0x1)Complete name : Q:\2014-2015 НОВОГОДНИЕ\Роза Хутор. Рождество 2015.tsFormat : MPEG-TSFile size : 12.7 GiBDuration : 1h 48mnOverall bit rate mode : VariableOverall bit rate : 16.7 Mbps
    VideoID : 2142 (0x85E)Menu ID : 1 (0x1)Format : AVCFormat/Info : Advanced Video CodecFormat profile : Main@L4.0Format settings, CABAC : YesFormat settings, ReFrames : 3 framesCodec ID : 27Duration : 1h 48mnBit rate : 15.7 MbpsWidth : 1 920 pixelsHeight : 1 080 pixelsDisplay aspect ratio : 16:9Frame rate : 25.000 fpsStandard : ComponentColor space : YUVChroma subsampling : 4:2:0Bit depth : 8 bitsScan type : InterlacedBits/(Pixel*Frame) : 0.303Stream size : 11.9 GiB (94%)
    AudioID : 2145 (0x861)Menu ID : 1 (0x1)Format : MPEG AudioFormat version : Version 1Format profile : Layer 2Codec ID : 3Duration : 1h 48mnBit rate mode : ConstantBit rate : 192 KbpsChannel(s) : 2 channelsSampling rate : 48.0 KHzCompression mode : LossyStream size : 149 MiB (1%)Language : Russian

    Скриншоты


    Скачать .torrent

    Скачать торрент-файл бесплатно и на максимальной скорости!

    Как скачивать? · Что такое торрент? · Рейтинг и ограничения

    !ВНИМАНИЕ!
    Сайт не распространяет и не хранит электронные версии произведений, а занимается лишь лишь предоставлением доступа к создаваемому пользователями каталогу ссылок на торрент-файлы, которые содержат только списки хеш-сумм, убедительная просьба с жалобами обращаться напрямую к пользователю. Файлы для обмена на трекере предоставлены пользователями сайта, и администрация не несёт ответственности за их содержание. Просьба не заливать файлы, защищенные авторскими правами, а также файлы нелегального содержания!

    [Профиль] [ЛС]
    Показать сообщения:    
    Ответить на тему

    Текущее время: Сегодня, в 08:13

    Часовой пояс: GMT + 2



    Вы не можете начинать темы
    Вы не можете отвечать на сообщения
    Вы не можете редактировать свои сообщения
    Вы не можете удалять свои сообщения
    Вы не можете голосовать в опросах
    Вы не можете прикреплять файлы к сообщениям
    Вы не можете скачивать файлы