BitTorrentTracker PerecTracker.org
BitTorrentTracker PerecTracker.org
    
Регистрация  ·  Вход
 
 · 
Забыли пароль?

  • Роза Хутор. Рождество 2015 [2015, Pop, HDTV 1080i]

    Ответить на тему
     
    Автор Сообщение

    Columb

    Создавать темы 08-Янв-2015 10:15

           

    [Цитировать]

    Роза Хутор. Рождество 2015
    Жанр: Pop
    Продолжительность: 01:48:30
    Год выпуска: 2015
    Описание: Фестиваль «Рождество на Роза Хутор» откроется 7 января грандиозным гала-концертом, прямую трансляцию которого будет вести Первый канал. В гала-концерте примут участие Иосиф Кобзон, Григорий Лепс, Ирина Аллегрова, Стас Михайлов, Ани Лорак, Валерий Меладзе, Кристина Орбакайте, Нюша, Emin, Loboda, Тимати, Стас Пьеха, Юлия Паршута, Никита Пресняков и другие исполнители. 8 января на сцене концертного зала «Роза Хутор» состоится концерт «Григорий Лепс и друзья», в программе которого лучшие дуэты в исполнении Г.Лепса и его коллег: Ирины Аллегровой, Ани Лорак, Стаса Михайлова, Валерия Меладзе, Emin’a, Иосифа Кобзона. Чтобы исполнить с Григорием Лепсом легендарный «Лондон», в Сочи на один вечер прилетит Тимати. А 9 января зрителей ждет выступление лучших участников вокального телевизионного шоу «Голос» в сопровождении оркестра Сергея Жилина «Фонограф-Джаз-Бэнд». Вместе со «старшим» поколением на сцену выйдут и юные участники проекта «Голос. Дети» Рагда Ханиева и Лев Аксельрод. Билеты на все дни Фестиваля «Рождество на Роза Хутор» можно приобрести в кассах горного курорта.
    Доп. информация: Релиз -

    Рип чистый. Без посторонних надписей. Выкладывается как есть.
    Качество: HDTV 1080i
    Контейнер: TS
    Видео кодек: AVC
    Аудио кодек: MP2, AC3
    Видео: 1920x1080 (16:9) 25.000 fps ~ 8 638 Kbps, 0.167 bit/pixel
    Аудио 1: MPEG Audio 48000Hz stereo 224 Кбит/сек
    Аудио 2: AC3, 6 channels, 48000Hz, 384 Кбит/сек

    Скриншоты


    Скринлист

    MI

    GeneralID : 1 (0x1)Complete name : F:\Роза Хутор. Рождество 2015 (2015, Pop, HDTV 1080i) (MYDIMKA).tsFormat : MPEG-TSFile size : 7.38 GiBDuration : 1h 48mnOverall bit rate mode : VariableOverall bit rate : 9 733 Kbps
    VideoID : 1902 (0x76E)Menu ID : 1 (0x1)Format : AVCFormat/Info : Advanced Video CodecFormat profile : High@L4.0Format settings, CABAC : YesFormat settings, ReFrames : 3 framesCodec ID : 27Duration : 1h 48mnBit rate : 8 638 KbpsWidth : 1 920 pixelsHeight : 1 080 pixelsDisplay aspect ratio : 16:9Frame rate : 25.000 fpsStandard : ComponentColor space : YUVChroma subsampling : 4:2:0Bit depth : 8 bitsScan type : InterlacedScan order : Top Field FirstBits/(Pixel*Frame) : 0.167Stream size : 6.55 GiB (89%)Color primaries : BT.709Transfer characteristics : BT.709Matrix coefficients : BT.709
    Audio #1ID : 2902 (0xB56)Menu ID : 1 (0x1)Format : MPEG AudioFormat version : Version 1Format profile : Layer 2Codec ID : 3Duration : 1h 48mnBit rate mode : ConstantBit rate : 224 KbpsChannel(s) : 2 channelsSampling rate : 48.0 KHzCompression mode : LossyStream size : 174 MiB (2%)Language : Russian
    Audio #2ID : 3902 (0xF3E)Menu ID : 1 (0x1)Format : AC-3Format/Info : Audio Coding 3Mode extension : CM (complete main)Format settings, Endianness : BigCodec ID : 6Duration : 1h 48mnBit rate mode : ConstantBit rate : 384 KbpsChannel(s) : 6 channelsChannel positions : Front: L C R, Side: L R, LFESampling rate : 48.0 KHzBit depth : 16 bitsCompression mode : LossyStream size : 298 MiB (4%)Language : Russian
    Скачать .torrent

    Скачать торрент-файл бесплатно и на максимальной скорости!

    Как скачивать? · Что такое торрент? · Рейтинг и ограничения

    !ВНИМАНИЕ!
    Сайт не распространяет и не хранит электронные версии произведений, а занимается лишь лишь предоставлением доступа к создаваемому пользователями каталогу ссылок на торрент-файлы, которые содержат только списки хеш-сумм, убедительная просьба с жалобами обращаться напрямую к пользователю. Файлы для обмена на трекере предоставлены пользователями сайта, и администрация не несёт ответственности за их содержание. Просьба не заливать файлы, защищенные авторскими правами, а также файлы нелегального содержания!

    [Профиль] [ЛС]
    Показать сообщения:    
    Ответить на тему

    Текущее время: Сегодня, в 17:23

    Часовой пояс: GMT + 2



    Вы не можете начинать темы
    Вы не можете отвечать на сообщения
    Вы не можете редактировать свои сообщения
    Вы не можете удалять свои сообщения
    Вы не можете голосовать в опросах
    Вы не можете прикреплять файлы к сообщениям
    Вы не можете скачивать файлы