BitTorrentTracker PerecTracker.org
BitTorrentTracker PerecTracker.org
    
Регистрация  ·  Вход
 
 · 
Забыли пароль?

  • Красавцы-старшеклассники на страже Земли во имя Любви! / Binan Koukou Chikyuu Bouei Bu Love! (Такамацу Синдзи) [TV] [1 из >12] [Без хардсаба] [JAP+SUB] [2015 г., комедия, HDTVRip] [720p]

    Ответить на тему
     
    Автор Сообщение

    Columb

    Создавать темы 07-Янв-2015 15:07

           

    [Цитировать]

    Красавцы-старшеклассники на страже Земли во имя Любви! / Binan Koukou Chikyuu Bouei Bu Love!-Страна: Япония
    Год выпуска: 2015 г.
    Тип: TV
    Жанр: Комедия
    Продолжительность: 12 эп. по 25 мин-Русские субтитры:
    Редактор: Bel-chan Timecraft
    Оформление: DeadMouse Ani-Panic
    Перевод: Seiya Loveless seiya.moe-Режиссер: Такамацу Синдзи
    Студия:
    Описание:
    История повествует нам о жизни «Клуба Защитников Земли», в основном известном как «Ничего не делающий клуб».
    Одним славным деньком двое его членов Эн и Ацуши, принимая ванну в открытом горячем источнике, неожиданно знакомятся с таинственным розовым существом Вомбатом, появившемся из ниоткуда и просящим весьма странные вещи: «Я хочу спасть эту звезду... Прошу, могли бы вы одолжить мне свою силу?» Однако странности на сем не заканчиваются, и неожиданно появляется еще один участник клуба Юмото, семья которого владеет этой самой купальней, и начинает судорожно тискать Вомбата.
    На следующий день в школе два других члена клуба Ио и Рю также встречают Вомбата. После чего он дает всем пятерым браслеты и говорит, что теперь деятельностью их клуба является защита Земли!
    Качество: HDTVRip | Равка: Leopard-Raws Формат: mp4 | Тип Видео: без хардсаба
    Видео кодек: AVC
    Видео: AVC, 8 bits, 1280x720, 1999 kbps, 23.976 fps, (16:9)
    Аудио:
    1. JP - AAC, 192 kbps, 48.0 KHz, 2 ch

    Список эпизодов

    01. Во имя любви

    Скриншоты

    MediaInfo

    бщее
    Полное имя : D:\[Leopard-Raws]\[Leopard-Raws] Binan Koukou Chikyuu Bouei Bu Love!\[Leopard-Raws] Binan Koukou Chikyuu Bouei Bu Love! - 01 RAW (TX 1280x720 x264 AAC).mp4
    Формат : MPEG-4
    Профиль формата : Base Media
    Идентификатор кодека : isom
    Размер файла : 381 Мбайт
    Продолжительность : 24 м.
    Режим общего битрейта : Переменный
    Общий поток : 2195 Кбит/сек
    Дата кодирования : UTC 2015-01-06 20:08:37
    Дата пометки : UTC 2015-01-06 20:08:37
    Видео
    Идентификатор : 1
    Формат : AVC
    Формат/Информация : Advanced Video Codec
    Профиль формата : High@L4.1
    Параметр CABAC формата : Да
    Параметр ReFrames формата : 4 кадра
    Идентификатор кодека : avc1
    Идентификатор кодека/Информация : Advanced Video Coding
    Продолжительность : 24 м.
    Битрейт : 1999 Кбит/сек
    Максимальный битрейт : 12,4 Мбит/сек
    Ширина : 1280 пикселей
    Высота : 720 пикселей
    Соотношение сторон : 16:9
    Режим частоты кадров : Постоянный
    Частота кадров : 23,976 кадра/сек
    Цветовое пространство : YUV
    Субдискретизация насыщенности : 4:2:0
    Битовая глубина : 8 бит
    Тип развёртки : Прогрессивная
    Бит/(Пиксели*Кадры) : 0.090
    Размер потока : 347 Мбайт (91%)
    Заголовок : 264:fps=23.976@GPAC0.5.1-DEV-rev4929
    Библиотека кодирования : x264 core 129 r2245+729M 1a52e03
    Настройки программы : cabac=1 / ref=4 / deblock=1:1:-1 / analyse=0x3:0x113 / me=umh / subme=9 / psy=1 / fade_compensate=0.00 / psy_rd=1.00:0.00 / mixed_ref=1 / me_range=24 / chroma_me=1 / trellis=2 / 8x8dct=1 / cqm=0 / deadzone=21,11 / fast_pskip=1 / chroma_qp_offset=-2 / threads=8 / lookahead_threads=1 / sliced_threads=0 / nr=0 / decimate=1 / interlaced=0 / bluray_compat=0 / constrained_intra=0 / fgo=0 / bframes=9 / b_pyramid=2 / b_adapt=2 / b_bias=0 / direct=1 / weightb=1 / open_gop=0 / weightp=2 / keyint=240 / keyint_min=24 / scenecut=40 / intra_refresh=0 / rc=crf / mbtree=0 / crf=19.0 / qcomp=0.72 / qpmin=0 / qpmax=69 / qpstep=4 / ip_ratio=1.40 / pb_ratio=1.30 / aq=1:0.85
    Дата кодирования : UTC 2015-01-06 20:08:37
    Дата пометки : UTC 2015-01-06 20:08:40
    Основные цвета : BT.709
    Характеристики трансфера : BT.709
    Коэффициенты матрицы : BT.709
    Аудио
    Идентификатор : 2
    Формат : AAC
    Формат/Информация : Advanced Audio Codec
    Профиль формата : LC
    Идентификатор кодека : 40
    Продолжительность : 24 м.
    Вид битрейта : Переменный
    Битрейт : 192 Кбит/сек
    Максимальный битрейт : 225 Кбит/сек
    Каналы : 2 канала
    Расположение каналов : Front: L R
    Частота : 48,0 КГц
    Метод сжатия : С потерями
    Размер потока : 33,3 Мбайт (9%)
    Язык : Japanese
    Дата кодирования : UTC 2015-01-06 19:04:01
    Дата пометки : UTC 2015-01-06 20:08:40
    Скачать .torrent

    Скачать торрент-файл бесплатно и на максимальной скорости!

    Как скачивать? · Что такое торрент? · Рейтинг и ограничения

    !ВНИМАНИЕ!
    Сайт не распространяет и не хранит электронные версии произведений, а занимается лишь лишь предоставлением доступа к создаваемому пользователями каталогу ссылок на торрент-файлы, которые содержат только списки хеш-сумм, убедительная просьба с жалобами обращаться напрямую к пользователю. Файлы для обмена на трекере предоставлены пользователями сайта, и администрация не несёт ответственности за их содержание. Просьба не заливать файлы, защищенные авторскими правами, а также файлы нелегального содержания!

    [Профиль] [ЛС]
    Показать сообщения:    
    Ответить на тему

    Текущее время: Сегодня, в 06:08

    Часовой пояс: GMT + 2



    Вы не можете начинать темы
    Вы не можете отвечать на сообщения
    Вы не можете редактировать свои сообщения
    Вы не можете удалять свои сообщения
    Вы не можете голосовать в опросах
    Вы не можете прикреплять файлы к сообщениям
    Вы не можете скачивать файлы