BitTorrentTracker PerecTracker.org
BitTorrentTracker PerecTracker.org
    
Регистрация  ·  Вход
 
 · 
Забыли пароль?

  • В Новый Год с Олимпийскими Чемпионами / Россия 2 [2015, Зимние виды спорта, DVB, MPEG2, 576i]

    Ответить на тему
     
    Автор Сообщение

    Columb

    Создавать темы 07-Янв-2015 12:44

           

    [Цитировать]

    В Новый Год с Олимпийскими Чемпионами
    Год выпуска: 31.12.2014-01.01.2015
    Комментарий: Профессиональный
    Язык комментариев: Русский
    Продолжительность: 02:35:03-Описание: С кем Новый год встретишь, с теми его и проведешь! Значит, встречать надо со счастливыми людьми. "Россия 2" приглашает выпить новогоднее шампанское и загадать желания в компании с олимпийскими чемпионами Сочи! Виктор Ан переоденется в Деда Мороза! Евгений Устюгов выберет в лесу живую елку! Вегетарианец Алексей Воевода приготовит необычный оливье! А семья Александра Зубкова научит, куда надо прятать новогодние желания, чтобы они сбывались! Олимпийский новогодний флэшмоб всех чемпионов, фотографии и видео из их личных телефонов, поздравления и воспоминания - два с лишним часа улыбающихся, плачущих, задумчивых, лиричных и, главное, счастливых людей, которые и нас осчастливили в уходящем году. В Новый год с олимпийскими чемпионами на телеканале "Россия 2"!-Автор рипа: sanchez2011
    Качество: DVB
    Формат: MPEG-PS
    Видео кодек: MPEG2
    Аудио кодек: MP2
    Видео: MPEG2 Video 720x576 (4:3) 25fps 3400kbps
    Аудио: MPEG Audio Layer 2 48000Hz stereo 192kbps

    Скриншоты

    MediaInfo

    GeneralComplete name : E:\В Новый год с Олимпийскими Чемпионами.mpgFormat : MPEG-PSFile size : 3.98 GiBDuration : 2h 35mnOverall bit rate mode : VariableOverall bit rate : 3 674 Kbps
    VideoID : 224 (0xE0)Format : MPEG VideoFormat version : Version 2Format profile : Main@MainFormat settings, BVOP : YesFormat settings, Matrix : CustomFormat settings, GOP : VariableDuration : 2h 35mnBit rate mode : VariableBit rate : 3 409 KbpsMaximum bit rate : 15.0 MbpsWidth : 720 pixelsHeight : 576 pixelsDisplay aspect ratio : 4:3Frame rate : 25.000 fpsStandard : PALColor space : YUVChroma subsampling : 4:2:0Bit depth : 8 bitsScan type : InterlacedScan order : Top Field FirstCompression mode : LossyBits/(Pixel*Frame) : 0.329Time code of first frame : 00:00:00:00Time code source : Group of pictures headerStream size : 3.69 GiB (93%)Matrix coefficients : BT.601
    AudioID : 192 (0xC0)Format : MPEG AudioFormat version : Version 1Format profile : Layer 2Duration : 2h 35mnBit rate mode : ConstantBit rate : 192 KbpsChannel(s) : 2 channelsSampling rate : 48.0 KHzCompression mode : LossyStream size : 213 MiB (5%)
    Скачать .torrent

    Скачать торрент-файл бесплатно и на максимальной скорости!

    Как скачивать? · Что такое торрент? · Рейтинг и ограничения

    !ВНИМАНИЕ!
    Сайт не распространяет и не хранит электронные версии произведений, а занимается лишь лишь предоставлением доступа к создаваемому пользователями каталогу ссылок на торрент-файлы, которые содержат только списки хеш-сумм, убедительная просьба с жалобами обращаться напрямую к пользователю. Файлы для обмена на трекере предоставлены пользователями сайта, и администрация не несёт ответственности за их содержание. Просьба не заливать файлы, защищенные авторскими правами, а также файлы нелегального содержания!

    [Профиль] [ЛС]
    Показать сообщения:    
    Ответить на тему

    Текущее время: Сегодня, в 00:07

    Часовой пояс: GMT + 2



    Вы не можете начинать темы
    Вы не можете отвечать на сообщения
    Вы не можете редактировать свои сообщения
    Вы не можете удалять свои сообщения
    Вы не можете голосовать в опросах
    Вы не можете прикреплять файлы к сообщениям
    Вы не можете скачивать файлы