Register  ·  Log in
Forgot password?

  • Расследования авиакатастроф / Mayday / Air Crash Investigation (сезон 14) (1 серия из 10) [2015, документальный, DVB] 05.01.2015 14-07. Конкорд - в огне (Concorde - Up In Flames)

    Reply to topic
    Author Message


    Post 07-Jan-2015 13:42



    Air Crash Investigation / Mayday / Расследования авиакатастроф / сезон 14 (1 серия из 10)
    Год выпуска: 2015
    Страна: Канада
    Жанр: документальный
    Продолжительность: ~ 00:47:00
    Перевод: Профессиональный (двухголосый закадровый)
    Русские субтитры: нет
    Описание: Сериал о наиболее громких и загадочных катастрофах в истории гражданской авиации.
    Наиболее полную информацию о сериале можно получить здесь List of Mayday episodes, для фанатов рекомендую именно этот сайт.
    Есть русская, более лаконичная версия Список эпизодов телесериала «Расследования авиакатастроф»
    Доп. информация: Видеоматериал записал Prof1
    Качество: DVB
    формат: MPG
    Видео: 720х576@1024х576 (1,78:1), 25 fps, mpeg2 ~3200 kbps avg, 0.309 bit/pixel
    Аудио : Russian (48 KHz, MP2, 2 ch, ~192 Kbps) (двухголосый)

    Список выпусков/серий

    14-07. Конкорд - в огне (Concorde - Up In Flames)


    Complete name : D:\КИНО\Air Crash Investigation season 14\14-07. Конкорд - в огне (Concorde - Up In Flames).mpg
    Format : MPEG-PS
    File size : 1.04 GiB
    Duration : 43mn 24s
    Overall bit rate : 3 432 Kbps
    ID : 224 (0xE0)
    Format : MPEG Video
    Format version : Version 2
    Format profile : Main@Main
    Format settings, BVOP : Yes
    Format settings, Matrix : Custom
    Format settings, GOP : Variable
    Duration : 43mn 24s
    Bit rate : 3 200 Kbps
    Width : 720 pixels
    Height : 576 pixels
    Display aspect ratio : 16:9
    Frame rate : 25.000 fps
    Standard : PAL
    Color space : YUV
    Chroma subsampling : 4:2:0
    Bit depth : 8 bits
    Scan type : Interlaced
    Scan order : Top Field First
    Compression mode : Lossy
    Bits/(Pixel*Frame) : 0.309
    Stream size : 985 MiB (92%)
    ID : 192 (0xC0)
    Format : MPEG Audio
    Format version : Version 1
    Format profile : Layer 2
    Duration : 43mn 24s
    Bit rate mode : Constant
    Bit rate : 192 Kbps
    Channel count : 2 channels
    Sampling rate : 48.0 KHz
    Compression mode : Lossy
    Delay relative to video : 22ms
    Stream size : 59.6 MiB (6%)


    Download .torrent

    Download free and at maximum speed!

    How to Download? · What is a torrent? · Ratings and Limitations

    The site does not extend and does not store electronic(digital) versions of products, and only gives access to a reference catalogue created by users on torrent-files which contain only lists of the hash-sums, the earnest entreaty, with complaints(abuse) to access directly to the user. Files for an exchange on tracker are given by users of a site, and the administration does not bear the responsibility for their maintenance. The request to not fill in the files protected by copyrights, and also files of the illegal maintenance!

    [Profile] [PM]
    Display posts from previous:    
    Reply to topic

    The time now is: Today 16:28

    All times are GMT + 3 Hours

    You cannot post new topics in this forum
    You cannot reply to topics in this forum
    You cannot edit your posts in this forum
    You cannot delete your posts in this forum
    You cannot vote in polls in this forum
    You cannot attach files in this forum
    You cannot download files in this forum