BitTorrentTracker PerecTracker.org
BitTorrentTracker PerecTracker.org
    
Регистрация  ·  Вход
 
 · 
Забыли пароль?

  • Расследования авиакатастроф / Mayday / Air Crash Investigation (сезон 14) (1 серия из 10) [2015, документальный, DVB] 05.01.2015 14-07. Конкорд - в огне (Concorde - Up In Flames)

    Ответить на тему
     
    Автор Сообщение

    Columb

    Создавать темы 07-Янв-2015 12:42

           

    [Цитировать]

    Air Crash Investigation / Mayday / Расследования авиакатастроф / сезон 14 (1 серия из 10)
    Год выпуска: 2015
    Страна: Канада
    Жанр: документальный
    Продолжительность: ~ 00:47:00
    Перевод: Профессиональный (двухголосый закадровый)
    Русские субтитры: нет
    Описание: Сериал о наиболее громких и загадочных катастрофах в истории гражданской авиации.
    Наиболее полную информацию о сериале можно получить здесь List of Mayday episodes, для фанатов рекомендую именно этот сайт.
    Есть русская, более лаконичная версия Список эпизодов телесериала «Расследования авиакатастроф»
    Доп. информация: Видеоматериал записал Prof1
    Сэмпл: https://www.sendspace.com/file/ga37n8
    Качество: DVB
    формат: MPG
    Видео: 720х576@1024х576 (1,78:1), 25 fps, mpeg2 ~3200 kbps avg, 0.309 bit/pixel
    Аудио : Russian (48 KHz, MP2, 2 ch, ~192 Kbps) (двухголосый)

    Список выпусков/серий

    14-07. Конкорд - в огне (Concorde - Up In Flames)

    MediaInfo

    General
    Complete name : D:\КИНО\Air Crash Investigation season 14\14-07. Конкорд - в огне (Concorde - Up In Flames).mpg
    Format : MPEG-PS
    File size : 1.04 GiB
    Duration : 43mn 24s
    Overall bit rate : 3 432 Kbps
    Video
    ID : 224 (0xE0)
    Format : MPEG Video
    Format version : Version 2
    Format profile : Main@Main
    Format settings, BVOP : Yes
    Format settings, Matrix : Custom
    Format settings, GOP : Variable
    Duration : 43mn 24s
    Bit rate : 3 200 Kbps
    Width : 720 pixels
    Height : 576 pixels
    Display aspect ratio : 16:9
    Frame rate : 25.000 fps
    Standard : PAL
    Color space : YUV
    Chroma subsampling : 4:2:0
    Bit depth : 8 bits
    Scan type : Interlaced
    Scan order : Top Field First
    Compression mode : Lossy
    Bits/(Pixel*Frame) : 0.309
    Stream size : 985 MiB (92%)
    Audio
    ID : 192 (0xC0)
    Format : MPEG Audio
    Format version : Version 1
    Format profile : Layer 2
    Duration : 43mn 24s
    Bit rate mode : Constant
    Bit rate : 192 Kbps
    Channel count : 2 channels
    Sampling rate : 48.0 KHz
    Compression mode : Lossy
    Delay relative to video : 22ms
    Stream size : 59.6 MiB (6%)
    Menu

    Скриншоты

    [
    Скачать .torrent

    Скачать торрент-файл бесплатно и на максимальной скорости!

    Как скачивать? · Что такое торрент? · Рейтинг и ограничения

    !ВНИМАНИЕ!
    Сайт не распространяет и не хранит электронные версии произведений, а занимается лишь лишь предоставлением доступа к создаваемому пользователями каталогу ссылок на торрент-файлы, которые содержат только списки хеш-сумм, убедительная просьба с жалобами обращаться напрямую к пользователю. Файлы для обмена на трекере предоставлены пользователями сайта, и администрация не несёт ответственности за их содержание. Просьба не заливать файлы, защищенные авторскими правами, а также файлы нелегального содержания!

    [Профиль] [ЛС]
    Показать сообщения:    
    Ответить на тему

    Текущее время: Сегодня, в 12:04

    Часовой пояс: GMT + 2



    Вы не можете начинать темы
    Вы не можете отвечать на сообщения
    Вы не можете редактировать свои сообщения
    Вы не можете удалять свои сообщения
    Вы не можете голосовать в опросах
    Вы не можете прикреплять файлы к сообщениям
    Вы не можете скачивать файлы