Register  ·  Log in
Forgot password?

  • Благотворительный концерт "Дорогою добра" (Эфир от 07.01.2015, ТВ Центр) [2015 г., Pop, TVRip]

    Reply to topic
    Author Message


    Post 07-Jan-2015 13:39



    Благотворительный концерт "Дорогою добра" (Эфир от 07.01.2015, ТВ Центр)
    Страна: Россия
    Жанр: Pop
    Продолжительность: 01:14:54
    Год выпуска: 2015 г
    Описание: Концерт-акция "Дорогою добра" проходил 19 ноября 2014 года в ГЦКЗ "Россия" и был посвящён самому дорогому человеку для каждого – Маме.
    Ведущий концерта – Александр Олешко.
    В концерте принимают участие: Олег Газманов, Валерия, Лариса Долина, Алсу, Витас, Варвара, Оксана Фёдорова, Павел Соколов, Александра Гайдук, Юлия Началова, Елена Максимова, театр-студия "Домисолька", театр-студия "Непоседы".
    Источник: собственный рип
    Качество: TVRip
    Контейнер: MTS
    Видео кодек: MPEG2
    Аудио кодек: MP2
    Видео: MPEG Video; 720x576 (4:3); 25.000 fps; ~4 000 Kbps
    Аудио: MPEG Audio 48000Hz stereo 192 Кбит/сек

    Отчёт MediaInfo

    GeneralID : 1 (0x1)Complete name : E:\Дорогою добра. Концерт.mtsFormat : MPEG-TSFile size : 2.39 GiBDuration : 1h 14mnOverall bit rate mode : VariableOverall bit rate : 4 578 Kbps
    VideoID : 256 (0x100)Menu ID : 1 (0x1)Format : MPEG VideoFormat version : Version 2Format profile : Main@MainFormat settings, BVOP : YesFormat settings, Matrix : CustomFormat settings, GOP : VariableCodec ID : 2Duration : 1h 14mnBit rate : 4 158 KbpsMaximum bit rate : 4 000 KbpsWidth : 720 pixelsHeight : 576 pixelsDisplay aspect ratio : 4:3Frame rate : 25.000 fpsStandard : PALColor space : YUVChroma subsampling : 4:2:0Bit depth : 8 bitsScan type : InterlacedScan order : Top Field FirstCompression mode : LossyBits/(Pixel*Frame) : 0.401Stream size : 2.18 GiB (91%)
    AudioID : 257 (0x101)Menu ID : 1 (0x1)Format : MPEG AudioFormat version : Version 1Format profile : Layer 2Mode : Joint stereoMode extension : Intensity Stereo + MS StereoCodec ID : 3Duration : 1h 14mnBit rate mode : ConstantBit rate : 192 KbpsChannel(s) : 2 channelsSampling rate : 48.0 KHzCompression mode : LossyDelay relative to video : 260msStream size : 103 MiB (4%)Language : Russian
    MenuID : 4096 (0x1000)Menu ID : 1 (0x1)Duration : 1h 14mnList : 256 (0x100) (MPEG Video) / 257 (0x101) (MPEG Audio, Russian)Language : / RussianService name : Service01Service provider : FFmpegService type : digital television


    Download .torrent

    Download free and at maximum speed!

    How to Download? · What is a torrent? · Ratings and Limitations

    The site does not extend and does not store electronic(digital) versions of products, and only gives access to a reference catalogue created by users on torrent-files which contain only lists of the hash-sums, the earnest entreaty, with complaints(abuse) to access directly to the user. Files for an exchange on tracker are given by users of a site, and the administration does not bear the responsibility for their maintenance. The request to not fill in the files protected by copyrights, and also files of the illegal maintenance!

    [Profile] [PM]


    Post 22-May-2016 23:05 (after 1 year 4 months)


    Топик был перенесен из форума Клипы в форум Видео выступлений

    Йохан Палыч

    Как бы ты высоко не летал, не забывай, с кем ты ползал..
    Display posts from previous:    
    Reply to topic

    The time now is: Today 04:26

    All times are GMT + 3 Hours

    You cannot post new topics in this forum
    You cannot reply to topics in this forum
    You cannot edit your posts in this forum
    You cannot delete your posts in this forum
    You cannot vote in polls in this forum
    You cannot attach files in this forum
    You cannot download files in this forum