BitTorrentTracker PerecTracker.org
BitTorrentTracker PerecTracker.org
    
Регистрация  ·  Вход
 
 · 
Забыли пароль?

  • Рождество Христово. Прямая трансляция из Храма Христа Спасителя (RT) [06.01.2015, Богослужение, HDTVRip]

    Ответить на тему
     
    Автор Сообщение

    Columb

    Создавать темы 07-Янв-2015 12:37

           

    [Цитировать]

    Рождество Христово. Прямая трансляция из Храма Христа Спасителя
    Дата/Год выпуска: 06.01.2015
    Страна: Россия
    Жанр: Богослужение
    Продолжительность: 02:21:47
    Перевод: Не требуется
    Русские субтитры: нет
    Телеканал: RT
    Описание: Ночное торжественное богослужение, посвящённое великому празднику Рождества Христова состоялось в кафедральном соборе Русской православной церкви - храме Христа Спасителя. Службу возглавил патриарх Московский и всея Руси Кирилл. По его указу, вся служба впервые проходила с открытыми Царскими вратами, что символизирует открытость слова Божьего для всех.
    Сэмпл: скачать
    качество: HDTVRip
    формат: MP4
    Видео: MPEG4 Video (H264) 1280x720 30fps 2864kbps
    Аудио: AAC 44100Hz stereo 192kbps

    MediaInfo

    Format : MPEG-4Format profile : Base Media / Version 2Codec ID : mp42File size : 3.03 GiBDuration : 2h 21mnOverall bit rate mode : VariableOverall bit rate : 3 060 KbpsEncoded date : UTC 2015-01-07 00:08:36Tagged date : UTC 2015-01-07 00:08:36gsst : 0gstd : 8506885gssd : BADC23AECHH1420612986261213gshh : r12---sn-n8v7lnes.googlevideo.com
    VideoID : 1Format : AVCFormat/Info : Advanced Video CodecFormat profile : High@L3.1Format settings, CABAC : YesFormat settings, ReFrames : 1 frameCodec ID : avc1Codec ID/Info : Advanced Video CodingDuration : 2h 21mnBit rate : 2 865 KbpsMaximum bit rate : 8 425 KbpsWidth : 1 280 pixelsHeight : 720 pixelsDisplay aspect ratio : 16:9Frame rate mode : ConstantFrame rate : 30.000 fpsColor space : YUVChroma subsampling : 4:2:0Bit depth : 8 bitsScan type : ProgressiveBits/(Pixel*Frame) : 0.104Stream size : 2.84 GiB (94%)Tagged date : UTC 2015-01-07 00:14:51
    AudioID : 2Format : AACFormat/Info : Advanced Audio CodecFormat profile : LCCodec ID : 40Duration : 2h 21mnBit rate mode : VariableBit rate : 192 KbpsMaximum bit rate : 202 KbpsChannel(s) : 2 channelsChannel positions : Front: L RSampling rate : 44.1 KHzCompression mode : LossyStream size : 195 MiB (6%)Title : IsoMedia File Produced by Google, 5-11-2011Encoded date : UTC 2015-01-07 00:12:01Tagged date : UTC 2015-01-07 00:14:51

    Скриншоты

    Скачать .torrent

    Скачать торрент-файл бесплатно и на максимальной скорости!

    Как скачивать? · Что такое торрент? · Рейтинг и ограничения

    !ВНИМАНИЕ!
    Сайт не распространяет и не хранит электронные версии произведений, а занимается лишь лишь предоставлением доступа к создаваемому пользователями каталогу ссылок на торрент-файлы, которые содержат только списки хеш-сумм, убедительная просьба с жалобами обращаться напрямую к пользователю. Файлы для обмена на трекере предоставлены пользователями сайта, и администрация не несёт ответственности за их содержание. Просьба не заливать файлы, защищенные авторскими правами, а также файлы нелегального содержания!

    [Профиль] [ЛС]
    Показать сообщения:    
    Ответить на тему

    Текущее время: Сегодня, в 19:02

    Часовой пояс: GMT + 2



    Вы не можете начинать темы
    Вы не можете отвечать на сообщения
    Вы не можете редактировать свои сообщения
    Вы не можете удалять свои сообщения
    Вы не можете голосовать в опросах
    Вы не можете прикреплять файлы к сообщениям
    Вы не можете скачивать файлы