BitTorrentTracker PerecTracker.org
BitTorrentTracker PerecTracker.org
    
Регистрация  ·  Вход
 
 · 
Забыли пароль?

  • Земные следы Иисуса [2015, документальный, DVB]

    Ответить на тему
     
    Автор Сообщение

    Columb

    Создавать темы 07-Янв-2015 09:09

           

    [Цитировать]

    Земные следы Иисуса
    Год выпуска: 2015
    Страна: Россия
    Жанр: Документальный
    Продолжительность: 01:00:02
    Перевод: Не требуется
    Русские субтитры: нет
    Режиссеры: А. Горовацкий, А. Смирнов
    Описание: Для христиан истинность евангельских событий не нуждается в доказательствах – это вопрос веры. И все же и христианам важно знать факты, подтверждающие или опровергающие евангельские рассказы. В фильме евангельские события исследуются методами объективной науки, позволяющими непредвзято взглянуть на поворотный момент человеческой истории. Авторы совершают путешествие по следам Иисуса на Святой земле, ищут следы Его земного пребывания и рассматривают доступные сегодня источники, дающие информацию о жизни Иисуса Христа – реального исторического лица.
    Участвуют: писатель и исследователь, автор книги "Королевские прогулки по Иерусалиму" М. Король; культуролог А. Микушевич; писатель М. Хейфец; писатель Л. Бежин; философ К. Сингх.
    Качество видео: DVB
    Формат видео: MPEG-PS
    Видео: MPEG2 Video, 720x576 (4:3), 25 fps, 4700 kbps
    Аудио: MPEG Audiо, 2 сh, 48 kHz, 192 kbps
    Трансляция спутникового канала:

    MediaInfo

    General
    Complete name : D:\Земные следы Иисуса. (2015)_DVB by SLuMeP.mpg
    Format : MPEG-PS
    File size : 2.09 GiB
    Duration : 1h 0mn
    Overall bit rate mode : Variable
    Overall bit rate : 4 993 Kbps
    Video
    ID : 224 (0xE0)
    Format : MPEG Video
    Format version : Version 2
    Format profile : Main@Main
    Format settings, BVOP : No
    Format settings, Matrix : Custom
    Format settings, GOP : M=3, N=36
    Duration : 1h 0mn
    Bit rate mode : Variable
    Bit rate : 4 702 Kbps
    Maximum bit rate : 15.0 Mbps
    Width : 720 pixels
    Height : 576 pixels
    Display aspect ratio : 4:3
    Frame rate : 25.000 fps
    Standard : PAL
    Color space : YUV
    Chroma subsampling : 4:2:0
    Bit depth : 8 bits
    Scan type : Interlaced
    Scan order : Top Field First
    Compression mode : Lossy
    Bits/(Pixel*Frame) : 0.453
    Time code of first frame : 00:00:00:00
    Time code source : Group of pictures header
    Stream size : 1.97 GiB (94%)
    Audio
    ID : 192 (0xC0)
    Format : MPEG Audio
    Format version : Version 1
    Format profile : Layer 2
    Duration : 1h 0mn
    Bit rate mode : Constant
    Bit rate : 192 Kbps
    Channel(s) : 2 channels
    Sampling rate : 48.0 KHz
    Compression mode : Lossy
    Stream size : 82.5 MiB (4%)

    Скриншоты


    Скачать .torrent

    Скачать торрент-файл бесплатно и на максимальной скорости!

    Как скачивать? · Что такое торрент? · Рейтинг и ограничения

    !ВНИМАНИЕ!
    Сайт не распространяет и не хранит электронные версии произведений, а занимается лишь лишь предоставлением доступа к создаваемому пользователями каталогу ссылок на торрент-файлы, которые содержат только списки хеш-сумм, убедительная просьба с жалобами обращаться напрямую к пользователю. Файлы для обмена на трекере предоставлены пользователями сайта, и администрация не несёт ответственности за их содержание. Просьба не заливать файлы, защищенные авторскими правами, а также файлы нелегального содержания!

    [Профиль] [ЛС]
    Показать сообщения:    
    Ответить на тему

    Текущее время: Сегодня, в 10:45

    Часовой пояс: GMT + 2



    Вы не можете начинать темы
    Вы не можете отвечать на сообщения
    Вы не можете редактировать свои сообщения
    Вы не можете удалять свои сообщения
    Вы не можете голосовать в опросах
    Вы не можете прикреплять файлы к сообщениям
    Вы не можете скачивать файлы